<svg xmlns="http://www.w3.org/2000/svg"><metadata>Generated by Fontastic.me</metadata><defs><font id="dripicons-v2" horiz-adv-x="512"><font-face ascent="480" descent="-32" font-family="dripicons-v2" units-per-em="512"/><glyph d="M459 344c6 5 30 28 31 62 0 25-11 47-35 67 0 0 0 1 0 1-28 21-53 22-68 20-27-5-46-25-54-35-24 9-50 14-77 14-27 0-53-5-77-13-8 10-26 30-53 35-16 3-40 1-68-20 0 0-1-1-1-1-24-21-35-43-35-68 1-34 25-57 31-62-13-29-21-61-21-96 0-56 21-108 56-147-1-1-1-1-1-1l-32-49c-7-10-4-24 6-30 4-3 8-4 12-4 7 0 14 3 18 10l29 43c38-29 85-46 136-46 51 0 99 17 136 47l30-44c4-7 11-10 18-10 5 0 9 1 12 4 10 6 13 20 7 30l-33 49c0 0-1 1-1 1 34 40 54 91 54 147 1 35-7 67-20 96z m-64 106c9 2 20-2 31-11 13-11 19-22 19-32 0-10-5-19-10-24-17 22-38 41-61 56 6 5 13 10 21 11z m-328-43c0 10 6 21 19 32 11 9 22 13 31 11 8-1 15-6 21-11-23-15-44-34-61-56-4 6-10 14-10 24z m189-339c-99 0-179 81-179 180 0 99 80 181 179 181 99 0 179-81 179-180 0-99-80-181-179-181z m81 131c9-9 9-23 0-31-5-5-10-7-16-7-5 0-11 2-15 7l-66 65c-3 4-6 10-6 15l0 120c0 13 10 23 22 23 12 0 22-10 22-23l0-110z" glyph-name="alarm" unicode="a"/><glyph d="M456 412l-400 0c-13 0-23 10-23 22 0 12 10 22 23 22l400 0c13 0 23-10 23-22 0-12-10-22-23-22z m-63-97c0 12-10 22-22 22l-230 0c-12 0-22-10-22-22 0-12 10-22 22-22l230 0c12 0 22 10 22 22z m34-119c0 13-10 23-22 23l-298 0c-12 0-22-10-22-23 0-12 10-22 22-22l298 0c12 0 22 10 22 22z m41-118c0 12-10 22-22 22l-380 0c-12 0-22-10-22-22 0-12 10-22 22-22l379 0c13 0 23 10 23 22z" glyph-name="align-center" unicode="b"/><glyph d="M456 412l-400 0c-13 0-23 10-23 22 0 12 10 22 23 22l400 0c13 0 23-10 23-22 0-12-10-22-23-22z m23-97c0 12-10 22-23 22l-400 0c-13 0-23-10-23-22 0-12 10-22 23-22l400 0c13 0 23 10 23 22z m0-119c0 13-10 23-23 23l-400 0c-13 0-23-10-23-23 0-12 10-22 23-22l400 0c13 0 23 10 23 22z m-201-118c0 12-10 22-22 22l-199 0c-12 0-22-10-22-22 0-12 10-22 22-22l199 0c12 0 22 10 22 22z" glyph-name="align-justify" unicode="c"/><glyph d="M456 412l-400 0c-13 0-23 10-23 22 0 12 10 22 23 22l400 0c13 0 23-10 23-22 0-12-10-22-23-22z m-148-97c0 12-10 22-22 22l-230 0c-13 0-23-10-23-22 0-12 10-22 23-22l230 0c12 0 22 10 22 22z m68-119c0 13-10 23-22 23l-298 0c-13 0-23-10-23-23 0-12 10-22 23-22l298 0c12 0 22 10 22 22z m83-118c0 12-10 22-23 22l-379 0c-12 0-22-10-22-22 0-12 10-22 22-22l379 0c13 0 23 10 23 22z" glyph-name="align-left" unicode="d"/><glyph d="M456 412l-400 0c-13 0-23 10-23 22 0 12 10 22 23 22l400 0c13 0 23-10 23-22 0-12-10-22-23-22z m23-97c0 12-10 22-23 22l-230 0c-12 0-22-10-22-22 0-12 10-22 22-22l230 0c13 0 23 10 23 22z m0-119c0 13-10 23-23 23l-298 0c-12 0-22-10-22-23 0-12 10-22 22-22l298 0c13 0 23 10 23 22z m-2-118c0 12-10 22-22 22l-379 0c-13 0-23-10-23-22 0-12 10-22 23-22l379 0c12 0 22 10 22 22z" glyph-name="align-right" unicode="e"/><glyph d="M485 215c-5 5-11 8-18 8l-71 0c-13 0-23-10-23-23 0-12 10-22 23-22l43 0c-22-72-85-123-161-132l0 295c37 10 64 44 64 84 0 48-38 87-86 87-48 0-86-39-86-87 0-40 25-74 64-84l0-295c-78 9-139 60-161 132l43 0c13 0 23 10 23 22 0 13-10 23-23 23l-71 0c-7 0-13-3-18-8-4-5-6-11-5-17 20-115 118-198 234-198 116 0 214 83 233 198 1 6 0 12-4 17z m-271 210c0 24 19 42 42 42 23 0 42-18 42-42 0-23-19-42-42-42-23 0-42 19-42 42z" glyph-name="anchor" unicode="f"/><glyph d="M87 390c0 12 10 22 23 22l292 0c12 0 22-10 22-22 0-13-10-23-22-23l-292 0c-13 0-23 10-23 23z m59 55l220 0c10 0 19 9 19 20 0 10-9 19-19 19l-220 0c-10 0-19-9-19-19 0-11 9-20 19-20z m366-81l0-61c0-2-1-4-1-6l-71-259c-3-9-11-16-21-16l-327 0c-10 0-19 7-21 17l-70 258c0 1 0 2-1 4 0 1 0 2 0 3l0 60c0 12 10 22 22 22 13 0 23-10 23-22l0-41 422 0 0 41c0 12 10 22 23 22 12 0 22-10 22-22z m-52-86l-409 0 58-211 292 0z m-270-111l132 0c12 0 22 10 22 22 0 12-10 22-22 22l-132 0c-12 0-22-10-22-22 0-12 10-22 22-22z" glyph-name="archive" unicode="g"/><glyph d="M444 236c-4 8-12 14-21 14l-72 0 0 206c0 13-13 23-25 23l-140 0c-12 0-25-10-25-23l0-206-72 0c-9 0-17-6-21-14-3-8-1-18 5-25l167-170c4-5 10-7 16-7 6 0 12 2 16 7l167 170c6 7 8 17 5 25z m-188-146l-114 116 44 0c13 0 20 8 20 20l0 208 100 0 0-208c0-12 7-20 20-20l44 0z" glyph-name="arrow-down" unicode="h"/><glyph d="M456 351l-206 0 0 72c0 9-6 17-14 21-8 3-18 1-25-5l-170-167c-5-4-8-10-8-16 0-6 3-12 7-16l170-167c5-4 10-6 16-6 3 0 7 0 9 1 9 4 15 12 15 21l0 72 206 0c12 0 22 13 22 25l0 140c1 12-9 25-22 25z m-22-145l-208 0c-12 0-20-7-20-20l0-44-116 114 116 114 0-44c0-13 8-20 20-20l208 0z" glyph-name="arrow-left" unicode="i"/><glyph d="M472 272l-170 167c-7 6-18 8-25 5-9-4-15-12-15-21l0-72-206 0c-13 0-23-13-23-25l0-140c0-12 10-25 23-25l206 0 0-72c0-9 6-17 14-21 3-1 6-1 9-1 6 0 12 2 16 6l170 167c4 4 6 10 6 16 0 6-1 12-5 16z m-166-130l0 44c0 13-8 20-20 20l-208 0 0 100 208 0c12 0 20 7 20 20l0 44 116-114z" glyph-name="arrow-right" unicode="j"/><glyph d="M411 190l-139-139c-5-4-10-6-16-6-6 0-11 2-16 6l-139 139c-9 9-9 23 0 31 9 9 23 9 32 0l101-101 0 325c0 12 10 22 22 22 12 0 22-10 22-22l0-325 102 101c8 9 22 9 31 0 9-8 9-22 0-31z" glyph-name="arrow-thin-down" unicode="k"/><glyph d="M467 256c0-12-10-22-22-22l-325 0 101-102c9-8 9-22 0-31-4-4-10-6-16-6-5 0-11 2-15 6l-139 139c-9 9-9 23 0 32l139 139c9 9 23 9 31 0 9-9 9-23 0-32l-101-101 325 0c12 0 22-10 22-22z" glyph-name="arrow-thin-left" unicode="l"/><glyph d="M461 240l-139-139c-4-4-10-6-15-6-6 0-11 2-16 6-9 9-9 23 0 32l101 101-325 0c-12 0-22 10-22 22 0 12 10 22 22 22l325 0-101 102c-9 8-9 22 0 31 8 9 22 9 31 0l139-139c9-9 9-23 0-32z" glyph-name="arrow-thin-right" unicode="m"/><glyph d="M411 291c-5-5-10-7-16-7-5 0-11 2-15 7l-102 101 0-325c0-12-10-22-22-22-12 0-22 10-22 22l0 325-102-101c-8-9-22-9-31 0-9 8-9 22 0 31l139 139c9 9 23 9 31 0l139-139c10-9 10-23 1-31z" glyph-name="arrow-thin-up" unicode="n"/><glyph d="M439 302l-167 170c-4 4-10 7-16 7-6 0-12-3-16-7l-167-170c-6-6-8-18-5-25 4-9 12-15 21-15l72 0 0-206c0-12 13-22 25-22l140 0c12 0 25 10 25 22l0 206 72 0c9 0 17 6 21 14 3 8 1 19-5 26z m-113 4c-13 0-20-8-20-20l0-208-100 0 0 208c0 12-7 20-20 20l-44 0 114 116 114-116z" glyph-name="arrow-up" unicode="o"/><glyph d="M423 501l-334 0c-12 0-22-10-22-22l0-446c0-12 10-22 22-22l334 0c12 0 22 10 22 22l0 446c0 12-10 22-22 22z m-22-445l-290 0 0 400 290 0z m-234 80c0 11 9 20 19 20l133 0c10 0 19-9 19-20 0-10-8-19-19-19l-133 0c-10 0-19 9-19 19z m0 78c0 11 9 20 19 20l133 0c10 0 19-9 19-20 0-10-8-19-19-19l-133 0c-10 0-19 9-19 19z m172 162c0 10-8 19-19 19l-134 0c-10 0-19-9-19-19l0-78c0-11 9-20 19-20l134 0c11 0 19 9 19 20z m-133-20l95 0 0-39-95 0z" glyph-name="article" unicode="p"/><glyph d="M512 258l0-98c0-14-8-25-22-25-14 0-23 11-23 25l0 73-380 0 57-56c10-9 9-25-1-35-5-5-12-7-18-7-6 0-13 2-18 7l-100 98c-4 5-7 12-7 18 0 7 3 13 7 17l100 99c9 9 25 9 35 0 9-9 9-25-1-35l-56-56 401 0c7 0 14-3 19-8 4-4 7-11 7-17z" glyph-name="backspace" unicode="q"/><glyph d="M490 351l-61 0c0 0-1 1-1 2l-105 128c-8 10-22 12-31 4-10-8-12-23-4-33l83-101-230 0 83 101c8 10 6 24-4 32-9 8-23 7-31-3l-105-129c0 0-1-1-1-1l-61 0c-12 0-22-8-22-20l0-84c0-12 10-24 22-24l7 0 42-170c5-19 22-31 42-31l286 0c20 0 37 13 42 31l42 170 7 0c12 0 22 12 22 24l0 84c0 12-10 20-22 20z m-445-45l422 0 0-39-422 0z m353-239l-284 0-39 156 362 0z" glyph-name="basket" unicode="r"/><glyph d="M256 512c-141 0-256-115-256-256 0-141 115-256 256-256 141 0 256 115 256 256 0 141-115 256-256 256z m161-392c-14 13-38 41-47 84 43 6 75 15 95 22-5-40-23-76-48-106z m-370 107c20-8 52-17 95-23-8-43-33-71-47-84-25 30-43 66-48 107z m35 149c18-19 56-67 62-127-54 8-86 20-99 26 4 37 17 72 37 101z m384-101c-12-6-44-18-98-26 5 60 44 108 62 127 20-29 33-64 36-101z m-143-31c-14-1-29-2-45-2l0 224c48-5 90-25 123-56-21-22-74-84-78-166z m-89-3c-16 1-31 1-45 2-4 83-58 145-78 167 33 30 75 51 122 56l0-225z m-48-42c15-1 30-2 48-2l0-151c-40 4-77 20-108 43 20 19 50 55 60 110z m92-3c17 1 33 2 48 3 10-55 40-92 60-111-30-23-68-38-108-43z" glyph-name="basketball" unicode="s"/><glyph d="M490 317l-17 0 0 61c0 13-9 23-22 23l-429 0c-12 0-22-10-22-23l0-244c0-13 10-23 22-23l429 0c12 0 22 10 22 23l0 61 17 0c12 0 22 8 22 20l0 82c0 12-10 20-22 20z m-61-161l-384 0 0 200 384 0z" glyph-name="battery-empty" unicode="t"/><glyph d="M195 211l0 90c0 12 10 22 22 22l39 0c12 0 22-10 22-22l0-90c0-12-10-22-22-22l-39 0c-12 0-22 10-22 22z m139-22l39 0c12 0 22 10 22 22l0 57c0 6-1 11-5 15l-29 33c-5 5-10 7-17 7l-10 0c-12 0-22-9-22-21l0-91c0-12 10-22 22-22z m-234 0l39 0c12 0 22 10 22 22l0 90c0 12-10 22-22 22l-39 0c-12 0-22-10-22-22l0-90c0-12 10-22 22-22z m412 108l0-82c0-12-10-20-22-20l-17 0 0-61c0-13-9-23-22-23l-429 0c-12 0-22 10-22 23l0 244c0 13 10 23 22 23l429 0c12 0 22-10 22-23l0-61 17 0c12 0 22-8 22-20z m-83 59l-384 0 0-200 384 0z" glyph-name="battery-full" unicode="u"/><glyph d="M490 317l-17 0 0 61c0 13-9 23-22 23l-429 0c-12 0-22-10-22-23l0-244c0-13 10-23 22-23l429 0c12 0 22 10 22 23l0 61 17 0c12 0 22 8 22 20l0 82c0 12-10 20-22 20z m-61-161l-384 0 0 200 384 0z m-268 55c0-12-10-22-22-22l-39 0c-12 0-22 10-22 22l0 90c0 12 10 22 22 22l39 0c12 0 22-10 22-22z" glyph-name="battery-low" unicode="v"/><glyph d="M490 317l-17 0 0 61c0 13-9 23-22 23l-429 0c-12 0-22-10-22-23l0-244c0-13 10-23 22-23l429 0c12 0 22 10 22 23l0 61 17 0c12 0 22 8 22 20l0 82c0 12-10 20-22 20z m-61-161l-384 0 0 200 384 0z m-268 55c0-12-10-22-22-22l-39 0c-12 0-22 10-22 22l0 90c0 12 10 22 22 22l39 0c12 0 22-10 22-22z m117 0c0-12-10-22-22-22l-39 0c-12 0-22 10-22 22l0 90c0 12 10 22 22 22l39 0c12 0 22-10 22-22z" glyph-name="battery-medium" unicode="w"/><glyph d="M467 114c-37 0-51 22-51 158 0 107-49 174-132 184l0 34c0 13-10 23-22 23-13 0-23-10-23-23l0-33c-89-7-140-75-140-184 0-137-17-158-54-158-12-1-23-9-23-22 0-12 10-21 23-21l144 0c2-16 7-37 20-51 12-13 28-20 46-20 18 0 34 7 46 20 13 15 19 35 21 51l145 0c13 0 23 9 23 21 0 13-10 21-23 21z m-199-63c-2-3-5-6-13-6-7 0-11 3-13 6-4 5-7 10-8 21l19 0c1 0 2 0 4 0 1 0 2 0 3 0l18 0c-2-11-5-16-10-21z m-9 66c-1 0-2 0-3 0-1 0-2 0-3 0l-132 0c21 39 21 99 21 156 0 91 39 139 111 139l6 0c71 0 111-48 111-139 0-57 0-117 20-156z m79 197c1-10-7-20-18-20-1 0-1 0-1 0-10 0-19 8-20 18-1 25-21 34-23 35-10 5-14 16-11 26 4 10 15 14 26 10 2-1 45-18 47-69z" glyph-name="bell" unicode="x"/><glyph d="M423 501l-334 0c-12 0-22-10-22-22l0-446c0-12 10-22 22-22l334 0c12 0 22 10 22 22l0 446c0 12-10 22-22 22z m-22-445l-290 0 0 400 290 0z m-242 94c0 13 10 23 22 23l150 0c12 0 22-10 22-23 0-12-10-22-22-22l-150 0c-12 0-22 10-22 22z m3 106c0 12 10 22 22 22l147 0c12 0 22-10 22-22 0-12-10-22-22-22l-147 0c-12 0-22 10-22 22z m0 106c0 12 10 22 22 22l147 0c12 0 22-10 22-22 0-13-10-23-22-23l-147 0c-12 0-22 10-22 23z" glyph-name="blog" unicode="y"/><glyph d="M289 256l99 99c9 8 9 22 0 31l-116 119c-7 7-16 9-24 5-9-3-14-11-14-20l0-179-79 78c-9 9-23 8-32 0-9-9-8-23 0-32l103-101-102-102c-9-9-9-23 0-32 4-4 10-6 15-6 6 0 11 2 16 6l79 79 0-179c0-9 5-17 14-20 2-1 5-2 8-2 6 0 12 2 16 7l117 119c8 9 8 23 0 31z m-11 179l63-64-63-63z m0-358l0 127 63-63z" glyph-name="bluetooth" unicode="z"/><glyph d="M334 266c21 20 34 48 34 79 0 61-50 111-111 111l-118 0c-12 0-22-10-22-22l0-356c0-12 10-22 22-22l145 0c61 0 111 50 111 111 0 43-24 80-61 99z m-173 146l96 0c36 0 66-30 66-67 0-37-30-67-66-67l-96 0z m123-312l-123 0 0 134 123 0c37 0 67-30 67-67 0-37-30-67-67-67z" glyph-name="bold" unicode="A"/><glyph d="M356 512l-200 0c-12 0-22-10-22-22l0-468c0-9 5-17 13-20 3-1 6-2 9-2 6 0 12 2 16 7l82 87 86-87c6-6 16-8 25-5 8 3 13 11 13 20l0 468c0 12-10 22-22 22z m-22-436l-65 66c-4 5-10 8-15 8-6 0-12-4-16-8l-60-64 0 389 156 0z" glyph-name="bookmark" unicode="B"/><glyph d="M295 417l-161 0c-13 0-23-8-23-20l0-375c0-9 6-17 14-20 3-1 6-2 9-2 6 0 11 2 16 7l63 66 66-67c6-6 16-8 24-5 9 4 14 12 14 21l0 375c0 12-10 20-22 20z m-22-341l-45 45c-4 5-10 7-15 7-7 0-12-3-17-7l-40-43 0 295 117 0z m122 419l0-374c0-11-9-20-19-20-11 0-20 9-20 20l0 352-117 0 0-7c0-11-9-20-19-20-11 0-20 9-20 20l0 29c0 11 6 17 17 17l161 0c11 0 17-6 17-17z" glyph-name="bookmarks" unicode="C"/><glyph d="M416 378l-320 0c-12 0-22-10-22-22l-3-284c0-6 2-11 6-16 5-4 10-6 16-6l325 0c6 0 12 2 16 6 4 5 6 10 6 16l-2 284c0 12-10 22-22 22z m-160-283l-141 0 3 239 275 0 2-239z m71 178c0-13-10-23-22-23l-98 0c-12 0-22 10-22 23 0 12 10 22 22 22l97 0c13 0 23-10 23-22z m167 89c-1 0-3 0-4 0-11 0-20 7-22 18l-7 37-410 0-7-37c-2-13-14-20-26-18-12 2-20 14-18 26l11 56c2 10 11 18 22 18l446 0c10 0 20-8 21-18l11-56c3-12-5-23-17-26z" glyph-name="box" unicode="D"/><glyph d="M505 385c-4 3-9 5-15 5l-117 0 0 66c0 13-11 23-24 23l-186 0c-13 0-24-10-24-23l0-66-117 0c-12 0-22-8-22-20l0-314c0-13 10-23 22-23l468 0c12 0 22 10 22 23l0 313c0 6-2 11-7 16z m-321 49l144 0 0-44-144 0z m283-89l0-117-155 0 0 9c0 9-9 13-19 13l-74 0c-10 0-19-5-19-13l0-9-155 0 0 117z m-189-128l0-11-44 0 0 11z m-233-139l0 117 155 0 0-6c0-9 9-16 19-16l75 0c9 0 18 7 18 16l0 6 156 0 0-117z" glyph-name="briefcase" unicode="E"/><glyph d="M256 352c-53 0-96-43-96-96 0-53 43-96 96-96 53 0 96 43 96 96 0 53-43 96-96 96z m0-148c-28 0-52 24-52 52 0 28 24 52 52 52 28 0 52-24 52-52 0-28-24-52-52-52z m-22 204l0 21c0 12 10 22 22 22 12 0 22-10 22-22l0-21c0-12-10-22-22-22-12 0-22 10-22 22z m217-152c0-12-10-22-22-22l-21 0c-12 0-22 10-22 22 0 12 10 22 22 22l21 0c12 0 22-10 22-22z m-173-152l0-21c0-12-10-22-22-22-12 0-22 10-22 22l0 21c0 12 10 22 22 22 12 0 22-10 22-22z m-174 130l-21 0c-12 0-22 10-22 22 0 12 10 22 22 22l21 0c12 0 22-10 22-22 0-12-10-22-22-22z m244 114c-9 9-9 23 0 32l14 13c9 9 23 9 31 0 9-8 9-22 0-31l-13-14c-5-5-10-7-16-7-6 1-12 3-16 7z m45-198c9-9 9-23 0-32-4-4-10-7-15-7-6 0-11 3-16 7l-14 14c-9 9-9 23 0 32 9 9 23 9 32 0z m-229 14c9-9 9-23 0-32l-14-13c-4-5-10-7-15-7-6 0-11 2-16 7-9 8-9 22 0 31l14 14c8 9 22 9 31 0z m-45 198c-9 9-9 23 0 32 8 9 22 9 31 0l14-14c9-9 9-23 0-32-4-4-10-6-15-6-6 0-12 2-16 6z" glyph-name="brightness-low" unicode="F"/><glyph d="M256 380c-68 0-124-56-124-124 0-68 56-124 124-124 68 0 124 56 124 124 0 68-56 124-124 124z m0-204c-44 0-80 36-80 80 0 44 36 80 80 80 44 0 80-36 80-80 0-44-36-80-80-80z m-22 268l0 46c0 12 10 22 22 22 12 0 22-10 22-22l0-46c0-13-10-23-22-23-12 0-22 10-22 23z m278-188c0-12-10-22-22-22l-46 0c-13 0-23 10-23 22 0 12 10 22 23 22l46 0c12 0 22-10 22-22z m-234-188l0-46c0-12-10-22-22-22-12 0-22 10-22 22l0 46c0 13 10 23 22 23 12 0 22-10 22-23z m-210 166l-46 0c-12 0-22 10-22 22 0 12 10 22 22 22l46 0c13 0 23-10 23-22 0-12-10-22-23-22z m305 139c-9 9-9 23 0 32l32 32c9 9 23 9 32 0 9-9 9-23 0-32l-32-32c-5-5-10-7-16-7-6 0-12 2-16 7z m64-267c9-9 9-23 0-31-5-5-10-7-16-7-5 0-11 2-15 7l-33 32c-9 9-9 23 0 32 9 9 23 9 32 0z m-298 33c9-9 9-23 0-32l-32-32c-5-4-10-7-16-7-5 0-11 3-15 7-9 9-9 23 0 32l32 32c8 8 22 8 31 0z m-64 267c-9 9-9 23 0 31 9 9 23 9 32 0l32-32c9-9 9-23 0-32-4-4-10-6-15-6-6 0-12 2-16 6z" glyph-name="brightness-max" unicode="G"/><glyph d="M256 380c-68 0-124-56-124-124 0-68 56-124 124-124 68 0 124 56 124 124 0 68-56 124-124 124z m-80-124c0 44 36 80 80 80l0-159c-44-1-80 35-80 79z m58 188l0 46c0 12 10 22 22 22 12 0 22-10 22-22l0-46c0-13-10-23-22-23-12 0-22 10-22 23z m278-188c0-12-10-22-22-22l-46 0c-13 0-23 10-23 22 0 12 10 22 23 22l46 0c12 0 22-10 22-22z m-234-188l0-46c0-12-10-22-22-22-12 0-22 10-22 22l0 46c0 13 10 23 22 23 12 0 22-10 22-23z m-210 166l-46 0c-12 0-22 10-22 22 0 12 10 22 22 22l46 0c13 0 23-10 23-22 0-12-10-22-23-22z m305 139c-9 9-9 23 0 32l32 32c9 9 23 9 32 0 9-9 9-23 0-32l-32-32c-5-5-10-7-16-7-6 1-12 2-16 7z m64-267c9-9 9-23 0-31-5-5-10-7-16-7-5 0-11 2-15 7l-33 32c-9 9-9 23 0 32 9 9 23 9 32 0z m-298 33c9-9 9-23 0-32l-32-32c-5-4-10-7-16-7-5 0-11 3-15 7-9 9-9 23 0 32l32 32c8 8 22 8 31 0z m-64 267c-9 9-9 23 0 31 9 9 23 9 32 0l32-32c9-9 9-23 0-32-4-4-10-6-15-6-6 0-12 2-16 6z" glyph-name="brightness-medium" unicode="H"/><glyph d="M509 321c-5 17-15 30-30 38-19 10-41 9-57 6l-32 114c-2 8-8 14-16 16-8 1-16-1-22-7-79-89-112-111-200-149l-69-20c-61-17-96-82-79-143 9-29 28-54 56-69 17-10 36-15 55-15 9 0 18 1 27 4l7-26c4-14 12-27 22-37l12-11c4-4 10-6 15-6 6 0 12 2 16 7 9 9 9 23-1 32l-12 11c-4 4-7 10-9 16l-7 26 32 9c92 14 134 13 247-19 2-1 4-1 6-1 6 0 12 2 16 7 5 5 8 13 5 21l-32 114c14 6 34 16 45 34 8 15 10 31 5 48z m-428-175c-16 9-28 24-34 42-10 38 11 77 48 88l50 15 23-81 16-56-50-14c-18-5-37-3-53 6z m227 24c-25 0-50-2-80-6l-32 114-8 28c70 32 108 57 170 123l79-278c-52 14-90 19-129 19z m158 127c-4-6-12-11-20-14l-11 39c9 1 18 1 24-3 3-1 6-3 8-10 2-6 0-10-1-12z m-142 36c7-9 5-21-4-27-21-14-44-27-45-28-3-1-6-2-9-2-7 0-14 4-17 11-5 9-1 21 8 26 0 0 22 11 40 24 9 7 21 5 27-4z" glyph-name="broadcast" unicode="I"/><glyph d="M490 462l-468 0c-12 0-22-10-22-22l0-368c0-12 10-22 22-22l468 0c12 0 22 10 22 22l0 368c0 12-10 22-22 22z m-23-95l-155 0 0 50 155 0z m-333 0l0 50 55 0 0-50z m89 50l55 0 0-50-55 0z m-123 0l0-50-55 0 0 50z m-55-322l0 233 422 0 0-233z" glyph-name="browser" unicode="J"/><glyph d="M278 250l1-228c0-12-10-22-22-22-13 0-23 10-23 22l0 229-65-65c-9-8-23-8-32 0-8 9-8 23 0 32l103 102c9 8 23 8 31 0l102-102c9-9 9-23 0-32-4-4-10-6-15-6-6 0-11 2-16 6z m234 240l0-371c0-13-10-24-22-24l-137 0c-12 0-22 10-22 22 0 12 10 22 22 22l114 0 0 239-422 0 0-239 116 0c12 0 22-10 22-22 0-12-10-22-22-22l-139 0c-12 0-22 11-22 24l0 371c0 12 10 22 22 22l468 0c12 0 22-10 22-22z m-289-73l55 0 0 50-55 0z m-34 50l-55 0 0-50 55 0z m-144-50l55 0 0 50-55 0z m422 0l0 50-155 0 0-50z" glyph-name="browser-upload" unicode="K"/><glyph d="M512 464c0 12-5 24-14 33l-1 1c-18 18-48 18-66 1l-272-252c-37 7-76-3-104-31-38-38-38-80-37-106 0-3 0-6 0-9-1-21-11-46-16-54-3-6-3-12-1-18 2-6 7-11 12-13 27-11 53-16 78-16 44 0 85 17 117 48 26 27 41 58 41 90 0 8-1 15-2 22l251 271c9 9 14 20 14 33z m-335-384c-33-33-78-43-125-30 5 14 10 32 10 50 0 4 0 7 0 11 0 23-1 49 24 73 27 27 71 27 98 0 14-13 21-29 21-46 0-19-10-40-28-58z m290 382c0 0-1-1-1-1l-239-257c-4 4-7 8-11 12-4 4-8 7-12 11l257 239c0 0 1 1 1 1 1 1 3 1 4 0l1-1c0-1 0-2 0-2 0-1 0-2 0-2z" glyph-name="brush" unicode="L"/><glyph d="M122 391l0 71c0 15 13 28 28 28 16 0 28-13 28-28l0-71c0-16-12-28-28-28-15 0-28 12-28 28z m240-28c15 0 28 12 28 28l0 71c0 15-13 28-28 28-16 0-28-13-28-28l0-71c0-16 12-28 28-28z m150 63l0-376c0-12-10-22-22-22l-468 0c-12 0-22 10-22 22l0 376c0 13 10 25 22 25l52 0c12 0 22-10 22-22 0-13-10-23-22-23l-29 0 0-94 422 0 0 94-29 0c-12 0-22 10-22 23 0 12 10 22 22 22l52 0c12 0 22-12 22-25z m-45-354l0 201-422 0 0-201z m-246 334l70 0c12 0 22 10 22 23 0 12-10 22-22 22l-70 0c-12 0-22-10-22-22 0-13 10-23 22-23z" glyph-name="calendar" unicode="M"/><glyph d="M500 393c-8 4-18 3-25-2l-91-68 0 50c0 12-8 22-20 22l-342 0c-12 0-22-10-22-22l0-234c0-12 10-22 22-22l342 0c12 0 20 10 20 22l0 50 91-68c4-2 10-4 14-4 4 0 7 0 10 2 8 4 13 12 13 20l0 234c0 8-5 16-12 20z m-161-232l-294 0 0 190 294 0z m128 23l-77 59 0 26 77 59z" glyph-name="camcorder" unicode="N"/><glyph d="M256 362c-70 0-127-58-127-129 0-72 57-129 127-129 70 0 127 57 127 129 0 71-57 129-127 129z m0-215c-46 0-83 38-83 85 0 47 37 85 83 85 46 0 83-38 83-84 0-47-37-86-83-86z m62 80c-1-10-10-17-20-17-1 0-1 0-2 0-11 2-19 11-17 22 2 16-17 25-18 26-9 4-14 16-9 25 4 10 15 14 25 10 18-8 46-30 41-66z m-43-24c4-4 7-10 7-16 0-6-3-12-7-16-5-3-10-6-16-6-5 0-11 2-15 6-4 5-7 10-7 16 0 6 2 12 7 16 4 4 10 6 15 6 6 0 12-2 16-6z m215 164l-86 0-24 89c-3 10-12 17-22 17l-205 0c-10 0-19-7-22-17l-24-89-85 0c-12 0-22-9-22-21l0-285c0-12 10-22 22-22l468 0c12 0 22 10 22 22l0 285c0 12-10 21-22 21z m-23-284l-422 0 0 240 80 0c10 0 19 7 21 16l24 90 172 0 24-90c2-9 11-16 21-16l80 0z" glyph-name="camera" unicode="O"/><glyph d="M512 382c0 23-18 41-41 41l-430 0c-23 0-41-18-41-41l0-252c0-23 18-41 41-41l430 0c23 0 42 18 42 41l0 252z m-45-4l0-39-422 0 0 39z m-422-244l0 139 422 0 0-139z m381 72c0-12-10-22-23-22l-105 0c-13 0-23 10-23 22 0 12 10 22 23 22l105 0c13 0 23-10 23-22z" glyph-name="card" unicode="P"/><glyph d="M511 360l-60-187c-4-14-16-23-30-23l-230 0c-13 0-26 9-30 21l-88 235-51 0c-12 0-22 10-22 23 0 12 10 22 22 22l66 0c10 0 18-6 22-15l90-241 212 0 47 150-262 0c-12 0-22 10-22 22 0 13 10 23 22 23l293 0c7 0 14-4 18-10 4-5 5-13 3-20z m-308-239c-10 0-19-4-26-11-7-6-11-16-11-25 0-10 4-19 11-26 7-7 16-11 26-11 9 0 18 4 25 11 7 7 11 16 11 26 0 9-4 19-11 25-7 7-16 11-25 11z m199 0c-9 0-19-4-25-11-7-6-11-16-11-25 0-10 4-19 11-26 6-7 16-11 25-11 10 0 19 4 26 11 7 7 11 16 11 26 0 9-4 19-11 25-7 7-16 11-26 11z" glyph-name="cart" unicode="Q"/><glyph d="M201 434c0 16 13 28 28 28l244 0c16 0 28-12 28-28 0-15-12-28-28-28l-244 0c-15 0-28 13-28 28z m272-150l-244 0c-15 0-28-12-28-28 0-16 13-28 28-28l244 0c16 0 28 12 28 28 0 16-12 28-28 28z m0-178l-244 0c-15 0-28-13-28-28 0-16 13-28 28-28l244 0c16 0 28 12 28 28 0 15-12 28-28 28z m-334 370c0 10-9 19-19 19l-84 0c-10 0-19-9-19-19l0-84c0-10 9-19 19-19l84 0c10 0 19 9 19 19z m0-262c0-10-9-19-19-19l-84 0c-10 0-19 9-19 19l0 84c0 10 9 19 19 19l84 0c10 0 19-9 19-19z m-33 64l-50 0 0-44 50 0z m33-242c0-10-9-19-19-19l-84 0c-10 0-19 9-19 19l0 84c0 10 9 19 19 19l84 0c10 0 19-9 19-19z m-33 64l-50 0 0-50 50 0z" glyph-name="checklist" unicode="R"/><glyph d="M191 111c-6 0-12 3-17 8l-111 110c-10 10-10 26 0 36 10 10 25 10 36 0l93-93 222 221c10 10 26 10 36 0 10-10 10-25 0-35l-240-239c-6-5-12-8-19-8z" glyph-name="checkmark" unicode="S"/><glyph d="M256 161c-6 0-12 3-16 7l-139 145c-9 9-9 23 0 31 9 9 23 9 32 0l123-128 123 128c8 9 23 9 32 0 9-8 9-22 0-31l-139-145c-4-4-10-7-16-7z" glyph-name="chevron-down" unicode="T"/><glyph d="M344 133c9-8 9-23 0-32-4-4-10-6-16-6-5 0-11 2-15 6l-145 139c-4 4-7 10-7 16 0 6 3 12 7 16l145 139c9 9 23 9 31 0 9-9 9-23 0-32l-128-123z" glyph-name="chevron-left" unicode="U"/><glyph d="M351 256c0-6-3-12-7-16l-145-139c-4-4-10-6-15-6-6 0-12 2-16 6-9 9-9 23 0 32l128 123-128 123c-9 8-9 23 0 32 8 9 22 9 31 0l145-139c4-4 7-10 7-16z" glyph-name="chevron-right" unicode="V"/><glyph d="M395 161c-6 0-12 3-16 7l-123 128-123-128c-8-9-23-9-32 0-9 8-9 22 0 31l139 145c4 4 10 7 16 7 6 0 12-3 16-7l139-145c9-9 9-23 0-31-5-4-10-7-16-7z" glyph-name="chevron-up" unicode="W"/><glyph d="M429 462l-83 0-9 23c-6 16-22 27-39 27l-79 0c-18 0-33-11-39-27l-9-23-88 0c-12 0-22-11-22-23l0-417c0-12 10-22 22-22l346 0c12 0 22 10 22 22l0 417c0 12-10 23-22 23z m-242-45c9 0 18 6 21 14l13 36 75 0 13-36c4-9 12-14 22-14l17 0-16-31c-3-5-8-8-13-8l-121 0c-5 0-10 3-13 7l-19 32z m219-372l-300 0 0 372 9 0 31-55c0-1 1 0 1-1 11-17 30-27 51-27l120 0c21 0 42 10 52 29 0 1 1 2 1 2l26 52 9 0z" glyph-name="clipboard" unicode="X"/><glyph d="M256 512c-141 0-256-115-256-256 0-141 115-256 256-256 141 0 256 115 256 256 0 141-115 256-256 256z m0-467c-117 0-211 94-211 211 0 117 94 211 211 211 117 0 211-94 211-211 0-117-94-211-211-211z m85 158c9-9 9-23 0-32-4-5-10-7-15-7-6 0-12 2-16 7l-70 69c-4 4-6 10-6 16l0 132c0 13 10 23 22 23 12 0 22-10 22-23l0-123z" glyph-name="clock" unicode="Y"/><glyph d="M484 279l-78-78c-4-4-10-6-16-6-6 0-12 2-16 6l-77 78c-8 9-8 23 0 32 9 8 23 8 32 0l43-43c-6 80-72 144-153 144-84 0-152-70-152-156 0-86 68-156 153-156 31 0 61 10 86 27 10 8 24 5 31-5 7-10 5-24-5-31-33-23-72-35-112-35-109 0-198 89-198 200 0 111 89 200 198 200 102 0 187-79 196-181l35 36c9 8 23 8 32 0 9-9 9-23 1-32z" glyph-name="clockwise" unicode="Z"/><glyph d="M396 78c-111 0-294 0-297 0-49 0-90 37-98 88-6 39 11 92 73 120-14 62 21 114 67 136 30 14 62 15 92 5 26-8 50-26 68-51 27 15 60 16 87 1 24-13 46-41 43-83 60-19 84-70 81-115-4-49-41-101-116-101z m-202 312c-12 0-24-3-34-8-33-15-58-53-38-101 2-6 2-12-1-18-2-5-7-10-13-11-66-21-65-66-63-79 4-25 23-50 54-50 1 0 185-1 297-1 46 0 69 30 71 61 3 30-16 65-64 71-6 1-12 5-15 10-3 5-5 11-3 18 6 26-1 47-18 57-15 8-38 8-57-11-5-5-12-7-19-6-7 1-13 5-16 11-22 42-53 57-81 57z" glyph-name="cloud" unicode="0"/><glyph d="M506 265c-3-48-40-99-113-99-33 0-50 0-50 0-12 0-22 10-22 23 0 12 10 22 22 22 0 0 17 0 50 0 45 0 67 28 69 57 3 30-16 63-62 69-7 1-12 5-15 10-4 5-5 11-4 18 6 25 0 45-16 54-14 8-37 8-56-11-5-5-12-7-18-6-7 1-13 6-17 12-31 58-79 62-111 47-31-15-55-51-36-96 2-6 2-13-1-18-2-6-7-10-13-12-66-21-64-64-62-76 3-24 22-48 51-48l68 0c13 0 23-10 23-22 0-13-10-22-23-22l-68 0c-47 0-88 36-95 85-6 39 10 90 70 117-13 60 20 110 66 131 47 23 112 16 156-44 28 15 60 16 87 1 22-13 43-40 41-81 58-18 82-68 79-111z m-174-135l-54-54 0 202c0 12-10 23-23 23-12 0-22-11-22-23l1-202-54 54c-9 9-23 9-32 0-9-9-9-23 0-31l92-93c4-4 10-7 15-7 6 0 12 3 16 7l92 92c9 9 9 23 0 32-8 9-22 9-31 0z" glyph-name="cloud-download" unicode="1"/><glyph d="M512 225c-3-48-41-101-115-101-34 0-52 0-52 0-12 0-22 10-22 22 0 12 10 21 22 21 0 0 18 1 52 1 46 0 69 31 71 61 2 30-17 64-65 71-6 1-11 4-15 9-3 5-4 12-3 18 6 26 0 47-18 56-14 9-38 8-56-10-5-5-13-7-19-6-7 1-13 5-17 11-32 61-81 64-114 48-32-15-57-52-37-99 2-6 2-13-1-18-3-6-8-10-13-12-68-20-67-65-65-78 4-25 23-50 54-50l69 0c12 0 22-11 22-23 0-12-10-24-22-24l-69 2c-49 0-90 38-97 89-6 39 10 91 73 119-15 61 20 113 66 134 48 23 116 17 160-45 28 15 61 16 88 1 23-14 45-41 42-83 59-18 84-69 81-114z m-178-18c5-4 10-7 16-7 6 0 11 3 16 7 9 9 9 23 0 32l-94 94c-4 4-10 6-16 6-6 0-12-2-16-6l-94-95c-9-9-9-23 0-32 9-8 23-8 32 0l56 58 0-208c0-13 10-23 23-23 12 0 22 10 22 23l-1 207z" glyph-name="cloud-upload" unicode="2"/><glyph d="M328 95c-6 0-11 2-16 6-8 9-8 23 1 32l128 123-128 123c-9 8-9 23-1 32 9 9 23 9 32 0l145-139c4-4 6-10 6-16 0-6-2-12-6-16l-145-139c-5-4-10-6-16-6z m-128 6c8 9 8 23-1 32l-128 123 128 123c9 8 9 23 1 32-9 9-23 9-32 0l-145-139c-4-4-6-10-6-16 0-6 2-12 6-16l145-139c5-4 10-6 16-6 5 0 11 2 16 6z" glyph-name="code" unicode="3"/><glyph d="M492 49c9-9 9-23 0-32-4-4-10-6-16-6-5 0-11 2-16 6l-121 121 0-57c0-13-10-23-22-23-12 0-22 10-22 23l0 111c0 6 3 12 7 16 4 3 10 6 16 6l111 0c12 0 22-10 22-22 0-12-10-22-22-22l-57 0z m-175 246l111 0c12 0 22 10 22 22 0 12-10 22-22 22l-57 0 123 124c9 9 9 23 0 31-9 9-23 9-31 0l-124-123 0 57c0 12-10 23-22 23-12 0-22-10-22-22l0-112c0-6 2-11 7-15 4-5 9-7 15-7z m-123 154c-12 0-21-10-21-22l0-57-123 123c-9 8-23 8-32 0-9-9-9-23 0-31l122-122-57 0 0-1c-11 0-22-10-22-22 0-13 10-23 22-23l111 0c6 0 11 3 16 7 4 5 6 10 6 16l0 111c0 11-10 21-22 21z m-1-232l-111 0c-12 0-22-10-22-22 0-12 10-22 22-22l57 0-121-123c-9-9-9-23 0-32 4-4 10-6 16-6 6 0 12 2 17 6l122 121 0-57c0-12 8-21 21-21l-1 0c12 0 22 9 22 21l0 111c0 6-2 12-6 17-4 4-10 7-16 7z" glyph-name="contract" unicode="4"/><glyph d="M225 227c4-5 7-11 7-17l0-116c0-12-10-21-22-21l0 0c-12 0-21 8-21 20l0 63-139-138c-4-5-11-7-17-7-5 0-11 2-15 7-9 9-9 23 0 32l138 139-63 0c-12 0-22 10-22 22 0 13 10 23 22 23l117 0c6 0 11-3 15-7z m269 267c-9 9-22 9-31 0l-140-141 0 64c0 12-10 23-23 23-12 0-22-10-22-23l0-116c0-7 2-12 6-16 5-5 10-6 16-6l117 0c12 0 22 10 22 22 0 12-10 22-22 22l-64 0 141 140c9 9 9 23 0 31z" glyph-name="contract-2" unicode="5"/><glyph d="M490 378l-217 0 0 52c0 9-13 21-21 21l-235 0c-10 0-17-12-17-21l0-143c0-9 8-20 17-20l34 0 44-48c4-4 8-5 13-5 2 0 3 0 5 1 7 3 10 9 10 17l0 35 33 0 0-103c0-13 13-25 25-25l153 0 0-68c0-9 4-17 13-20 3-1 5-2 8-2 6 0 12 1 16 6l83 84 36 0c12 0 22 12 22 25l0 187c0 12-10 27-22 27z m-382-77c-9 0-19-4-19-14l0-11-19 21c-3 4-7 4-12 4l-25 0 0 116 201 0 0-39-53 0c-12 0-25-15-25-27l0-50z m359-117l-22 0c-6 0-11-1-16-6l-51-51 0 37c0 12-11 20-23 20l-155 0 0 150 267 0z m-234 100c0 9 7 17 16 17l107 0c9 0 16-8 16-17 0-10-7-17-16-17l-107 0c-9 0-16 7-16 17z m162-12c-4 3-5 7-5 12 0 4 1 9 5 12 6 6 17 6 24 0 3-4 5-8 5-12 0-5-2-9-5-12-4-3-8-5-12-5-5 1-10 2-12 5z" glyph-name="conversation" unicode="6"/><glyph d="M256 390c-4 4-9 5-14 5l-166 0c-11 0-26-7-26-17l0-352c0-12 15-25 26-25l263 0c12 0 17 14 17 25l0 253c0 5 0 10-4 14z m55-112l-72 0 0 72z m-216-233l0 311 105 0 0-96c0-11 10-21 21-21l96 0 0-194z m364 367l-97 97c-4 2-7 3-11 3l-167 0c-9 0-17-5-17-14l0-53c0-10 7-17 17-17 9 0 16 8 16 17l0 34 117 0 0-94c0-10 8-18 17-18l95 0 0-206-23 0c-10 0-17-7-17-16 0-10 8-17 17-17l42 0c9 0 14 8 14 18l0 254c0 4-1 8-3 12z m-108 61l71-72-71 0z" glyph-name="copy" unicode="7"/><glyph d="M494 457c9 9 9 23 0 32-8 9-23 9-32 0l-66-66-279 0 0 41c0 12-10 22-22 22-13 0-23-10-23-22l0-41-39 0c-12 0-22-10-22-22 0-13 10-23 22-23l39 0 0-277c0-1 1-1 1-2 0-1 0-2 0-3 0 0 1-1 1-2 0-1 1-2 1-2 0-1 0-1 1-2 0-1 0-2 1-2 0-1 1-2 1-2 1-1 1-1 2-1 1-2 2-2 3-3 0 0 0-1 1-1 1 0 2-1 3-1 1 0 1-1 3-1 0 0 1-1 2-1 1 0 3 0 4 0l288 0 0-39c0-12 10-22 22-22 13 0 23 10 23 22l0 39 38 0c13 0 23 10 23 22 0 12-10 22-23 22l-38 0 0 271z m-143-79l-234-225 0 225z m33-256l-234 0 234 227z" glyph-name="crop" unicode="8"/><glyph d="M393 154c10-10 10-25 0-35-5-5-11-8-17-8-7 0-13 3-18 8l-102 101-102-101c-5-5-11-8-18-8-6 0-12 3-17 8-10 10-10 25 0 35l101 102-101 102c-10 10-10 25 0 35 10 10 25 10 35 0l102-101 102 101c10 10 25 10 35 0 10-10 10-25 0-35l-101-102z" glyph-name="cross" unicode="9"/><glyph d="M257 512c-1 0-1 0 0 0-1 0-1 0 0 0-142 0-257-115-257-256 0-141 115-256 255-256 142 0 256 115 256 256 1 141-114 256-254 256z m21-466l0 57c0 12-10 22-22 22-12 0-22-10-22-22l0-57c-100 10-178 89-188 188l57 0c12 0 22 10 22 22 0 12-10 22-22 22l-57 0c10 99 88 178 188 188l0-57c0-12 10-22 22-22 12 0 22 10 22 22l0 57c100-10 178-89 188-188l-57 0c-12 0-22-10-22-22 0-12 10-22 22-22l57 0c-10-99-88-178-188-188z" glyph-name="crosshair" unicode="!"/><glyph d="M461 60c9-9 9-23 0-32-5-4-10-6-16-6-5 0-11 2-15 7l-177 177-175-177c-5-5-10-7-16-7-5 0-11 2-15 7-9 9-9 23 0 32l174 177-30 29-4-4c-14-14-33-22-53-22-20 0-39 8-53 22l-74 73c-9 8-9 22 0 31 9 9 22 9 31 0l74-73c6-6 14-9 22-9 8 0 16 3 22 9l5 5-96 94c-9 9-9 23 0 32 8 9 22 9 31 0l95-95 6 6c12 11 12 31 0 43l-74 73c-9 9-9 23 0 32 9 9 23 9 32 0l73-74c30-29 30-77 0-106l-5-6 29-29 197 199c3 4 10 7 15 7 6 0 12-3 16-7 49-49 41-119-21-181l-76-76c-8-8-22-8-31 0-9 9-9 23 0 32l75 75c45 45 44 79 34 100l-177-180z" glyph-name="cutlery" unicode="&quot;"/><glyph d="M470 473l-428 0c-23 0-42-19-42-42l0-247c0-23 19-45 42-45l142 0 0-23-43-34c-7-6-11-17-7-26 3-9 11-17 21-17l200 0c10 0 18 8 22 17 3 9 0 20-7 26l-42 34 0 23 142 0c23 0 42 22 42 45l0 247c0 23-19 42-42 42z m-174-383l13-12-109 0 15 13c4 4 8 10 8 16l0 32 66 0 0-32c0-6 3-13 7-17z m171 94l-422 0 0 245 422 0z" glyph-name="device-desktop" unicode="#"/><glyph d="M294 89c0-9-7-17-17-17l-43 0c-9 0-16 8-16 17 0 10 7 17 16 17l43 0c10 0 17-7 17-17z m107 381l0-428c0-23-19-42-43-42l-204 0c-24 0-43 19-43 42l0 428c0 23 19 42 43 42l204 0c24 0 43-19 43-42z m-245-3l0-294 200 0 0 294z m200-422l0 94-200 0 0-94z" glyph-name="device-mobile" unicode="$"/><glyph d="M287 83c0-9-7-16-17-16l-28 0c-10 0-17 7-17 16 0 10 7 17 17 17l28 0c10 0 17-7 17-17z m175 387l0-428c0-23-19-42-42-42l-328 0c-23 0-42 19-42 42l0 428c0 23 19 42 42 42l328 0c23 0 42-19 42-42z m-367-3l0-306 322 0 0 306z m322-422l0 83-322 0 0-83z" glyph-name="device-tablet" unicode="%"/><glyph d="M278 22c-1 0-3 0-4 1-10 1-17 9-18 19l-19 194-195 19c-10 2-18 9-19 19-2 10 4 19 13 24l423 190c8 3 18 2 25-5 6-7 8-17 4-25l-190-423c-4-8-12-13-20-13z m-148 269l128-13c11-1 19-9 20-20l14-128 131 293z" glyph-name="direction" unicode="&amp;"/><glyph d="M256 512c-141 0-256-115-256-256 0-141 115-256 256-256 141 0 256 115 256 256 0 141-115 256-256 256z m0-45c117 0 211-94 211-211 0-29-6-58-17-84l-125 62c8 25 2 54-18 74-20 20-48 25-73 18l-45 91c-4 8-14 12-23 8-8-4-11-14-7-23l46-93c0 0 0 0-1-1 0 0 0 0 0 0l-127 62c38 59 104 97 179 97z m-24-187c7 7 15 10 24 10 9 0 17-3 24-10 13-13 13-35 0-48-13-13-35-13-48 0-13 13-13 35 0 48z m138-202l-29 59c-4 8-14 12-23 8-8-4-11-14-7-23l29-59c-26-11-55-18-84-18-117 0-211 94-211 211 0 29 6 58 17 84l125-62c-8-25-2-53 18-73 14-14 33-21 51-21 18 0 37 7 51 21 0 0 1 0 1 0l126-63c-16-25-38-47-64-64z m-50 103c3-3 6-8 6-14 0-5-3-10-6-14-3-4-9-6-14-6-5 0-10 3-14 6-4 3-5 9-5 14 0 5 2 10 5 14 7 7 21 7 28 0z" glyph-name="disc" unicode="'"/><glyph d="M423 501l-334 0c-12 0-22-10-22-22l0-446c0-12 10-22 22-22l334 0c12 0 22 10 22 22l0 446c0 12-10 22-22 22z m-22-445l-290 0 0 400 290 0z m-237 147c0 11 9 20 20 20l65 0c11 0 20-9 20-20 0-10-9-19-20-19l-65 0c-11 0-20 9-20 19z m3 89c0 11 9 20 19 20l133 0c10 0 19-9 19-20 0-10-8-19-19-19l-133 0c-10 0-19 9-19 19z m0 84c0 10 9 19 19 19l133 0c10 0 19-9 19-19 0-11-8-20-19-20l-133 0c-10 0-19 9-19 20z m165-161c4-3 6-8 6-14 0-5-2-10-6-13-3-4-9-6-14-6-5 0-10 2-14 6-3 3-5 8-5 13 0 5 2 10 5 14 8 8 21 8 28 0z" glyph-name="document" unicode="("/><glyph d="M439 370l-123 124c-5 5-10 7-17 7l-210 0c-12 0-22-10-22-22l0-446c0-12 10-22 22-22l334 0c12 0 22 10 22 22l0 322c0 6-2 11-6 15z m-38-25l-112 0 0 111 2 0z m-290-289l0 400 134 0 0-133c0-12 9-22 22-22l134 0 0-245z m209 166l-37-37 37-36c8-8 8-20 0-28-4-4-9-5-14-5-5 0-10 1-14 5l-36 36-36-36c-4-4-9-6-14-6-5 0-10 2-14 6-8 8-8 20 0 27l37 37-37 36c-8 8-8 21 0 28 8 8 20 8 27 0l36-37 37 37c7 8 20 8 27 0 9-7 9-19 1-27z" glyph-name="document-delete" unicode=")"/><glyph d="M479 461l-39 40c-4 4-8 5-13 5-4 0-8-1-11-5l-233-236c-2-2-3-3-4-6l-27-66c-2-6-1-13 4-18 4-3 8-5 12-5 2 0 4 1 6 1l66 27c2 1 4 2 5 3l234 237c7 6 7 17 0 23z m-254-234l-27-11 11 28 218 222 17-17z m170 20l0-225c0-12-11-22-23-22l-316 0c-13 0-23 10-23 22l0 424c0 13 10 21 23 21l231 0c12 0 22-10 22-22 0-12-10-22-22-22l-209 0 0-378 273 0 0 202c0 12 10 22 22 22 12 0 22-10 22-22z" glyph-name="document-edit" unicode="*"/><glyph d="M439 370l-123 124c-5 5-10 7-17 7l-210 0c-12 0-22-10-22-22l0-446c0-12 10-22 22-22l334 0c12 0 22 10 22 22l0 322c0 6-2 11-6 15z m-38-25l-112 0 0 111 2 0z m-290-289l0 400 134 0 0-133c0-12 9-22 22-22l134 0 0-245z" glyph-name="document-new" unicode="+"/><glyph d="M439 370l-123 124c-5 5-10 7-17 7l-210 0c-12 0-22-10-22-22l0-446c0-12 10-22 22-22l334 0c12 0 22 10 22 22l0 322c0 6-2 11-6 15z m-38-25l-112 0 0 111 2 0z m-290-289l0 400 134 0 0-133c0-12 9-22 22-22l134 0 0-245z m215 130c0-10-9-19-20-19l-100 0c-11 0-20 9-20 19 0 11 9 20 20 20l100 0c11 0 20-9 20-20z" glyph-name="document-remove" unicode=","/><glyph d="M256 217c-10 0-21 4-28 12-7 7-11 17-11 27 0 10 4 20 11 28 7 7 17 11 28 11 10 0 20-4 27-11 8-7 12-17 12-28 0-10-4-20-12-27-7-8-17-12-27-12z" glyph-name="dot" unicode="-"/><glyph d="M189 217c-10 0-20 4-28 12-7 7-11 17-11 27 0 10 5 20 11 28 8 7 18 11 28 11 10 0 20-4 27-11 8-7 12-17 12-28 0-10-4-20-12-27-7-8-17-12-27-12z m161 12c7 7 12 17 12 27 0 10-5 20-12 28-7 7-17 11-27 11-10 0-21-4-28-11-7-7-11-17-11-28 0-10 4-20 11-27 7-8 17-12 28-12 10 0 20 4 27 12z" glyph-name="dots-2" unicode="."/><glyph d="M117 217c-10 0-21 4-28 12-7 7-11 17-11 27 0 10 4 20 11 28 7 7 17 11 28 11 10 0 20-4 27-11 7-7 12-17 12-28 0-10-5-20-12-27-7-8-17-12-27-12z m166 12c8 7 12 17 12 27 0 10-4 20-12 28-7 7-17 11-27 11-10 0-21-4-28-11-7-7-11-17-11-28 0-10 4-20 11-27 7-8 17-12 28-12 10 0 20 4 27 12z m139 0c8 7 12 17 12 27 0 10-4 20-12 28-7 7-17 11-27 11-10 0-20-4-28-11-7-7-11-17-11-28 0-10 5-20 11-27 8-8 18-12 28-12 10 0 20 4 27 12z" glyph-name="dots-3" unicode="/"/><glyph d="M495 185l0-152c0-15-12-27-28-27l-422 0c-16 0-28 12-28 27l0 152c0 15 12 28 28 28 15 0 27-13 27-28l0-124 368 0 0 124c0 15 12 28 27 28 16 0 28-13 28-28z m-259-35c5-5 12-8 20-8 8 0 14 3 20 8l111 114c10 11 10 28-1 39-11 11-28 11-39 0l-63-65 0 241c0 15-12 27-28 27-16 0-28-12-28-27l0-241-63 64c-11 11-29 11-40 1-11-11-11-29 0-40z" glyph-name="download" unicode=":"/><glyph d="M490 131l-336 0c-13 0-23 10-23 23l0 336c0 12 10 22 23 22l336 0c12 0 22-10 22-22l0-336c0-13-10-23-22-23z m-314 45l291 0 0 291-291 0z m194-149l0 59c0 9-8 16-17 16-9 0-17-7-17-16l0-53-302 0 0 303 52 0c9 0 16 7 16 16 0 9-7 17-16 17l-59 0c-15 0-27-12-27-27l0-316c0-14 12-26 27-26l316 0c15 0 27 12 27 27z" glyph-name="duplicate" unicode=";"/><glyph d="M495 440l0-368c0-12-10-22-22-22l-290 0c-12 0-22 10-22 22l0 102c0 12 10 22 23 22 12 0 22-10 22-22l0-79 245 0 0 322-245 0 0-79c0-12-10-22-22-22-13 0-23 10-23 22l0 102c0 12 10 22 22 22l290 0c12 0 22-10 22-22z m-236-256c-9-9-9-23 0-32 4-4 10-6 15-6 6 0 12 2 16 6l87 88c9 9 9 23 0 32l-86 89c-9 9-23 9-32 0-9-9-9-23 0-32l49-50-269-1c-12 0-22-10-22-22 0-12 10-22 22-22l269 0z" glyph-name="enter" unicode="&lt;"/><glyph d="M334 174l0-102c0-12-9-22-21-22l-291 0c-12 0-22 10-22 22l0 368c0 12 10 22 22 22l291 0c12 0 21-10 21-22l0-102c0-12-10-22-22-22-13 0-23 10-23 22l0 79-244 0 0-322 244 0 0 79c0 12 10 22 23 22 12 0 22-10 22-22z m171 99l-86 88c-9 9-23 9-32 0-9-9-9-23 0-32l49-50-270-1c-12 0-22-10-22-22 0-12 10-22 22-22l270 0-49-50c-9-9-9-23 0-32 4-4 10-6 15-6 6 0 12 2 16 6l87 88c9 10 9 24 0 33z" glyph-name="exit" unicode="="/><glyph d="M501 479l0-112c0-12-10-22-22-22-13 0-23 10-23 22l0 58-129-129c-4-5-10-7-15-7-6 0-11 2-16 7-9 8-9 22 0 31l129 129-58 0c-12 0-22 10-22 23 0 12 10 22 22 22l112 0c6 0 11-2 15-7 5-4 7-9 7-15z m-22-312c-13 0-23-10-23-22l0-58-127 126c-8 9-23 9-32 0-9-9-9-23 0-32l125-125-57 0c-12 0-22-10-22-23 0-12 10-22 22-22l111 0c7 0 13 2 17 7 5 4 8 10 8 15l0 112c0 12-10 22-22 22z m-296 47l-127-127 0 58c0 12-10 22-23 22-12 0-22-10-22-22l0-112c0-6 2-11 7-15 4-5 10-7 16-7l111 0c12 0 23 10 23 22 0 13-11 23-23 23l-58 0 127 127c9 8 9 22 0 31-8 9-23 9-31 0z m-96 240l58 0c12 0 22 10 22 22 0 13-10 23-22 23l-112 0c-6 0-11-3-15-7-5-4-7-9-7-16l0-111c0-12 10-22 22-22 13 0 23 10 23 22l0 58 128-129c5-4 10-6 16-6 5 0 11 2 15 6 9 9 9 23 0 32z" glyph-name="expand" unicode="&gt;"/><glyph d="M501 479l0-117c0-13-10-23-22-23-13 0-23 10-23 23l0 63-140-141c-5-4-10-6-16-6-6 0-11 2-16 6-9 9-9 23 0 32l141 140-63 0c-13 0-23 10-23 23 0 12 10 22 23 22l117 0c6 0 11-2 15-7 5-4 7-9 7-15z m-307-254l-138-138 0 63c0 13-10 23-23 23-12 0-22-10-22-23l0-117c0-6 2-11 7-15 4-5 9-7 15-7l117 0c13 0 23 10 23 22 0 13-10 23-23 23l-63 0 139 138c9 9 9 23 0 32-9 8-23 8-32-1z" glyph-name="expand-2" unicode="?"/><glyph d="M499 489c-4 7-12 12-20 12l-446 0c-8 0-16-5-20-12-4-7-2-16 3-23l173-255 0-168c0-17 12-32 30-32l74 0c18 0 30 14 30 32l0 168 173 255c5 7 7 16 3 23z m-216-259c-3-3-5-7-5-12l0-162-44 0 0 162c0 5-2 9-5 12l-53 78c11 3 24 6 39 6 17 0 29-3 42-7 13-3 26-6 45-7 11 0 21 1 30 2z m82 119c-1 0-24-10-63-10-14 0-24 3-36 7-13 3-29 7-51 7-25 0-47-6-63-11l-77 114 362 0z m-46 37c-4 4-7 10-7 16 0 6 2 11 7 15 4 4 10 7 15 7 7 0 12-2 16-7 4-4 7-10 7-15 0-6-2-12-7-16-4-4-10-6-16-6-5 0-11 2-15 6z" glyph-name="experiment" unicode="@"/><glyph d="M406 86l0-28c0-12-10-19-23-19l-363 0c-12 0-20 7-20 19l0 275c0 13 8 24 20 24l65 0c12 0 22-10 22-23 0-12-10-22-22-22l-40 0 0-229 317 0 0 3c0 13 10 23 22 23 12 0 22-10 22-23z m99 208l-138-141c-6-7-16-8-24-5-9 4-15 12-15 21l0 61c-44 1-151-3-190-72-4-7-12-12-19-12-2 0-4 0-6 1-10 3-17 12-17 22 0 3 0 89 65 153 40 42 95 64 167 68l0 61c0 9 6 17 14 20 9 4 19 2 25-5l139-140c8-9 8-23-1-32z m-48 16l-84 86 0-28c0-12-10-22-22-22-69 0-122-18-158-55-17-17-28-35-36-53 53 31 119 37 160 37 21 0 35-2 36-2 12-1 20-11 20-22l0-27z" glyph-name="export" unicode="["/><glyph d="M343 55c0-17-14-30-30-30-1 0-1 0-1 0-17 1-30 15-30 32 3 79-15 138-56 176-65 61-166 51-167 51-17-2-32 10-34 27-2 17 10 32 27 34 5 1 130 13 216-66 54-51 79-127 75-224z m-240 118c-19 0-38-8-51-21-14-13-21-32-21-51 0-19 7-38 21-51 13-14 32-22 51-22 19 0 38 8 51 22 14 13 21 32 21 51 0 19-7 38-21 51-13 13-32 21-51 21z m270 215c-127 119-313 98-321 97-17-2-29-17-27-34 2-16 17-29 34-26 2 0 166 18 273-81 67-62 98-159 93-287-1-16 12-31 29-31 1 0 1 0 1 0 16 0 30 12 31 29 7 146-31 258-113 333z" glyph-name="feed" unicode="]"/><glyph d="M483 511c-11 3-21-3-25-13-6-14-65-75-116-77-29-1-55 19-84 40-37 27-77 57-129 47-78-15-114-84-116-88-2-4-2-10-1-15l22-99 65-289c2-11 12-18 22-18 1 0 3 0 5 1 12 3 19 14 16 27l-37 168c10 16 38 54 83 64 26 6 47-1 72-9 27-8 58-19 98-10 84 19 141 120 143 250 0 10-7 19-18 21z m-135-228c-27-6-49 1-74 10-27 9-58 19-96 10-38-8-67-30-86-51l-2 10-33 144c9 15 35 49 79 58 34 6 62-15 95-39 32-24 68-50 112-49 38 2 76 24 106 48-13-67-46-128-101-141z" glyph-name="flag" unicode="^"/><glyph d="M238 256c0-9-7-17-17-17l-42 0c-9 0-16 8-16 17 0 9 7 17 16 17l42 0c10 0 17-8 17-17z m274 130l0-260c0-17-14-32-32-32l-53 0c-91 1-147 51-165 73l-230 0c-18 0-32 14-32 32l0 115c0 18 14 31 32 31l229 0c19 22 74 72 166 72l53 0c18 0 32-14 32-31z m-467-175l38 0 0 90-38 0z m350-70l0 230c-67-11-106-60-106-61-5-6-10-9-17-9l-155 0 0-90 155 0c7 0 12-3 16-9 2-2 40-50 107-61z m72 232l-38 0 0-234 38 0z" glyph-name="flashlight" unicode="_"/><glyph d="M445 384l-192 0-24 40c-4 6-11 10-19 10l-143 0c-12 0-22-10-22-22l0-312c0-12 10-22 22-22l378 0c12 0 22 10 22 22l0 261c0 12-10 23-22 23z m-22-262l-334 0 0 268 108 0 24-40c4-7 12-11 19-11l183 0z" glyph-name="folder" unicode="`"/><glyph d="M507 297c-4 6-11 9-17 9l-28 0 0 61c0 10-8 17-18 17l-195 0-25 41c-4 6-10 9-17 9l-144 0c-10 0-18-6-18-17l0-111-23 0c-6 0-13-3-17-8-4-5-6-13-4-19l41-189c2-10 11-18 21-18l381 0c10 0 18 8 21 17l46 189c2 7 0 14-4 19z m-424 98l113 0 25-41c3-6 10-9 17-9l185 0 0-39-340 0z m343-278l-345 0-31 145 411 0z" glyph-name="folder-open" unicode="{"/><glyph d="M72 95c-1 0-4 0-5 0-10 3-17 11-17 22 0 3 1 88 64 152 41 40 96 63 166 67l0 59c0 9 6 17 14 21 9 3 18 1 25-5l137-139c8-9 8-23 0-32l-137-139c-6-6-16-8-25-5-8 4-14 12-14 21l0 60c-44 1-150-3-188-71-4-7-12-11-20-11z m196 127c21 0 35-2 37-2 11-1 20-10 20-22l0-27 83 85-83 85 0-27c0-12-10-22-22-22-69 0-122-19-157-55-16-16-27-34-35-52 52 31 117 37 157 37z" glyph-name="forward" unicode="|"/><glyph d="M338 340c5-4 8-11 8-18 0-6-3-13-8-18-4-4-11-7-17-7-7 0-14 3-18 7-5 5-7 12-7 18 0 7 2 13 7 18 4 4 11 7 18 7 6 0 13-3 17-7z m39-35c-6 0-12-3-17-7-5-5-8-11-8-18 0-7 3-13 8-18 4-4 11-7 17-7 7 0 14 3 18 7 5 5 7 11 7 18 0 7-2 13-7 18-4 4-11 7-18 7z m-189 12l-15 0 0 15c0 7-7 14-14 14-8 0-14-7-14-14l0-15-15 0c-8 0-14-6-14-14 0-7 6-14 14-14l15 0 0-14c0-8 6-14 14-14 7 0 14 6 14 14l0 14 15 0c8 0 14 7 14 14 0 8-6 14-14 14z m324-173c0-24-13-43-35-52-21-7-54-4-84 30-15 17-39 47-52 63-72-16-140-6-169 0-13-16-38-46-52-63-22-25-45-34-65-34-8 0-14 2-20 4-22 8-35 28-35 52 0 65 42 168 56 199-5 15-3 32 5 46 11 18 30 32 46 33 15 2 34-7 47-13 25 4 104 16 204 0 12 6 32 15 47 13 16-1 35-15 46-33 8-14 10-31 5-46 14-30 56-133 56-199z m-45 0c0 66-55 189-55 190-3 6-3 13 0 19 3 5 3 9 1 13-3 6-10 11-12 12-5 0-19-6-29-11-5-2-10-4-15-2-114 20-201 0-202 0-5-2-10-1-15 2-11 5-24 11-29 11-3-1-10-6-12-12-2-5-2-8 0-13 3-6 3-13 1-19 0-1-55-124-55-190 0-5 2-8 5-10 8-3 22 2 36 17 19 23 59 73 60 73 5 8 15 10 23 8 1 0 88-25 173 0 2 0 4 1 6 1 7 0 14-3 18-9 0 0 40-50 60-73 14-16 28-20 35-17 4 2 6 5 6 10z" glyph-name="gaming" unicode="}"/><glyph d="M256 149c-59 0-107 47-107 107 0 59 47 107 107 107 59 0 107-47 107-107 0-59-48-107-107-107z m0 175c-37 0-68-31-68-68 0-37 31-68 68-68 37 0 68 31 68 68 0 37-31 68-68 68z m0-324l-3 0c-19 0-36 2-37 2-9 1-16 8-17 17l-6 40c-12 4-24 9-35 15l-31-24c-7-5-17-5-24 0-1 1-14 11-28 25l-2 2c-14 14-24 27-25 28-5 7-5 16 0 24l25 32c-6 11-11 23-15 35l-39 6c-8 1-15 8-16 17-1 1-3 18-3 37l0 3c0 19 2 36 2 37 1 9 8 16 17 17l40 6c4 12 9 24 15 35l-24 31c-5 7-5 17 0 24 1 1 11 14 25 28l2 2c14 14 27 24 28 25 7 5 16 5 24 0l32-25c11 6 23 11 35 15l6 39c1 8 8 15 17 16 1 1 18 3 37 3l3 0c19 0 36-2 37-2 9-1 16-8 17-17l6-40c12-4 24-9 35-15l31 24c7 5 17 5 24 0 1-1 14-11 28-25l2-2c14-14 24-27 25-28 5-7 5-16 0-24l-24-32c6-11 10-23 14-35l39-6c9-1 16-8 17-17 0-1 2-18 2-38l0-2c0-20-2-37-2-38-1-9-8-15-17-17l-40-5c-4-13-9-24-15-36l24-31c5-7 5-17 0-24-1-1-11-14-25-28l-2-2c-14-14-27-24-28-25-7-5-16-5-24 0l-32 25c-11-6-23-10-35-14l-6-39c-1-9-8-16-17-17-1 0-18-2-37-2z m-20 40c5 0 11 0 17 0l3 0c6 0 12 0 17 0l5 37c1 8 7 14 15 16 18 4 34 11 49 21 5 2 10 3 15 2 3-1 6-2 8-4l30-22c3 3 8 7 12 11l3 3c4 4 8 8 11 12l-22 30c-5 6-5 15-1 22 9 15 16 31 20 47 2 9 8 15 17 17l37 5c0 5 0 11 0 17l0 2c0 6 0 12 0 17l-37 5c-8 1-14 7-16 15-4 18-11 34-20 49-1 1-2 2-2 4-2 6-1 14 3 19l22 30c-3 3-7 8-11 12l-3 3c-4 4-8 8-12 11l-30-22c-7-5-17-5-23 0-15 9-31 16-47 20-8 2-14 8-16 17l-5 37c-5 1-11 1-17 1l-2 0c-6 0-12 0-17-1l-5-38c-1-9-8-15-17-16-17-4-33-11-47-20-5-3-10-3-15-2-3 0-6 2-8 4l-29 22c-4-3-8-7-13-12l-2-2c-4-4-8-9-12-13l23-29c5-7 5-15 1-23-1 0-1-1-1-1-9-15-16-31-20-47-2-8-8-14-17-16l-37-5c0-5 0-11 0-17l0-2c0-6 0-12 0-17l37-5c9-1 15-8 16-17 0 0 0-1 0-1 4-16 11-32 20-46 3-5 4-11 2-17-1-2-3-4-4-7l-22-29c3-3 7-8 12-12l2-3c4-4 9-8 13-11l29 22c7 6 18 5 25-1 14-8 30-15 46-19 8-2 14-8 15-17z" glyph-name="gear" unicode="~"/><glyph d="M499 337l-234 105c-6 3-13 3-18 0l-234-105c-7-4-13-11-13-20 0-9 6-16 13-20l20-10 0-78c0-8 7-14 14-14 8 0 14 6 14 14l0 64 34-18 0-95c0-4 1-7 3-10 2-4 53-79 155-79 105 0 154 76 156 79 2 2 3 6 3 10l0 92 89 45c8 4 12 12 12 20-1 9-7 16-14 20z m-126-171c-11-13-49-56-120-56-69 0-108 42-119 56l0 69 112-57c3-2 7-2 10-2 3 0 7 0 11 2l106 54z m-117 57l-183 92 183 82 183-82z m-195-47c4-3 7-10 7-15 0-6-2-12-7-16-4-4-10-6-15-6-6 0-12 2-16 6-4 4-7 10-7 16 0 5 3 12 7 15 4 4 10 7 16 7 5 0 11-2 15-7z" glyph-name="graduation" unicode="\"/><glyph d="M406 17c-18 0-33 15-33 33l0 412c0 18 15 33 33 33 19 0 34-15 34-33l0-412c0-18-15-33-34-33z m-117 33l0 276c0 18-15 34-33 34-18 0-33-16-33-34l0-276c0-18 15-33 33-33 18 0 33 15 33 33z m-150 0l0 140c0 19-15 34-33 34-19 0-34-15-34-34l0-140c0-18 15-33 34-33 18 0 33 15 33 33z" glyph-name="graph-bar" unicode=""/><glyph d="M33 56c-5 0-10 1-14 4-13 7-17 25-10 38l68 113c5 8 14 14 23 14 10 0 19-4 24-12l29-40 61 105c5 7 14 13 23 14 9 0 18-4 23-12l54-71 141 233c7 14 25 18 38 10 13-8 17-25 10-39l-162-268c-5-8-14-13-23-14-9 0-18 4-24 11l-53 72-62-105c-5-8-13-13-23-14-9 0-18 4-24 12l-28 40-47-77c-5-9-14-14-24-14z" glyph-name="graph-line" unicode=""/><glyph d="M187 305l-168 0c-10 0-19 9-19 19 0 104 84 188 187 188 11 0 19-9 19-19l0-168c1-11-8-20-19-20z m-146 39l127 0 0 127c-66-8-119-61-127-127z m232-344c-132 0-238 102-238 229 0 12 10 22 22 22l204 0 0 204c0 12 10 22 22 22 124 0 229-109 229-238 0-132-107-239-239-239z m-192 206c11-91 93-161 192-161 107 0 194 87 194 194 0 97-72 181-161 192l0-202c0-13-10-23-23-23z" glyph-name="graph-pie" unicode=""/><glyph d="M495 274l0-141c0-12-10-22-23-22-12 0-22 10-22 22l1 141c0 52-20 100-57 137-37 36-85 56-137 56 0 0-1 0-1 0-107 0-194-86-195-192l0-141c0-13-10-23-22-23-12 0-22 10-22 23l0 141c0 131 108 237 239 237 0 0 1 0 1 0 64 0 124-25 168-70 46-45 70-105 70-168z m-291-12c4-4 5-8 5-13l0-225c0-11-9-18-20-18-73 0-97 42-100 65 0 1 0 0 0 1l0 127c0 1 0 1 0 2 3 23 27 66 100 66 0 0 1 0 1 0 5 0 10-1 14-5z m-34-34c-35-6-41-27-42-30l-1-125c2-4 8-24 43-30z m254-29l0-126c0-1 0-1 0-2-3-23-27-65-100-65-11 0-20 7-20 18l0 224c0 5 2 10 5 14 4 3 9 5 14 5 0 0 1 0 1 0 73 0 97-43 100-66 0-1 0-1 0-2z m-39-126l0 125c-2 4-8 24-43 30l1-185c35 7 41 27 42 30z" glyph-name="headset" unicode=""/><glyph d="M483 390c-23 50-71 83-122 83-52 0-86-23-105-47-19 24-53 47-105 47-51 0-99-33-122-83-23-53-13-112 28-157 97-110 183-187 185-188 4-4 9-5 15-5 5 0 10 1 15 5 1 1 86 79 184 188 40 45 50 104 27 157z m-61-128c-72-81-138-144-166-171-28 27-94 90-166 171-29 33-37 72-20 110 15 34 48 57 81 57 67 0 82-50 83-56 3-10 11-17 21-17 10 0 19 7 22 17 2 5 17 56 83 56 33 0 66-23 82-58 17-37 9-76-20-109z m-5 65c0-11-7-20-19-21 0 0-1 0-1 0-10 0-19 8-19 18-2 32-23 37-27 38-10 1-18 11-17 21 2 11 12 18 23 17 19-3 56-22 60-73z m-27-33c4-4 7-10 7-15 0-6-2-12-7-16-4-4-10-6-15-6-6 0-12 2-16 6-4 4-7 10-7 16 0 5 3 12 7 15 4 4 10 7 16 7 5 0 11-3 15-7z" glyph-name="heart" unicode=""/><glyph d="M437 437c-49 48-113 75-181 75-68 0-132-27-181-75-48-49-75-113-75-181 0-68 27-132 75-181 49-48 113-75 181-75 68 0 132 27 181 75 48 49 75 113 75 181 0 68-27 132-75 181z m-50-150l76 12c3-14 4-29 4-43 0-14-1-29-4-43l-76 12c4 20 4 42 0 62z m67 45l-79-13c-7 12-14 23-24 32-9 10-20 18-32 24l13 79c27-11 53-27 74-48 21-22 37-47 48-74z m-198-166c-24 0-47 9-63 26-18 17-27 40-27 63 0 24 10 47 27 64 17 18 40 26 63 26 23 0 46-9 63-26 18-17 27-40 27-64 0-23-10-46-27-63-16-17-39-26-63-26z m0 301c14 0 29-1 43-4l-12-76c-20 5-42 5-62 0l-12 76c14 3 29 4 43 4z m-150-61c21 21 47 38 74 48l13-79c-12-7-23-14-32-24-10-9-17-20-24-32l-79 13c11 27 27 52 48 74z m-61-150c0 14 1 29 4 43l76-12c-2-10-4-20-4-31 0-11 1-21 4-31l-76-12c-3 14-4 29-4 43z m13-76l79 13c7-12 14-23 24-32 10-10 21-17 32-24l-12-79c-27 10-53 27-74 48-22 22-38 47-49 74z m198-135c-14 0-29 1-43 4l12 76c10-2 20-4 31-4 11 0 21 1 31 4l12-76c-14-3-29-4-43-4z m150 61c-21-21-47-38-74-48l-13 79c12 7 23 14 32 24 10 10 18 21 24 32l79-12c-11-28-27-53-48-75z" glyph-name="help" unicode=""/><glyph d="M490 239c-6 0-11 3-16 6l-218 214-218-214c-9-8-23-8-32 1-8 9-8 23 1 32l233 228c9 8 23 8 32 0l233-228c9-9 9-23 1-32-5-4-11-7-16-7z m-49-217l0 218c0 12-10 22-22 22-13 0-23-10-23-22l0-195-69 0 0 119c0 16-14 29-30 29l-82 0c-16 0-30-13-30-29l0-119-69 0 0 195c0 12-10 22-23 22-12 0-22-10-22-22l0-218c0-12 10-22 22-22l115 0c12 0 22 10 22 22l0 127 53 0 0-127c0-12 10-22 22-22l114 0c12 0 22 10 22 22z" glyph-name="home" unicode=""/><glyph d="M434 56l-22 0 0 58c0 32-32 60-64 86-10 9-25 23-31 29l0 54c6 6 21 20 31 29 32 26 64 54 64 86l0 58 22 0c12 0 22 10 22 23 0 12-10 22-22 22l-356 0c-12 0-22-10-22-22 0-13 10-23 22-23l22 0 0-58c0-32 32-60 64-86 10-9 25-23 31-29l0-54c-6-6-21-20-31-29-32-26-64-54-64-86l0-58-22 0c-12 0-22-10-22-23 0-12 10-22 22-22l356 0c12 0 22 10 22 22 0 13-10 23-22 23z m-289 58c0 12 31 38 48 52 26 23 46 40 46 61l0 58c0 22-20 38-46 61-17 14-48 40-48 52l0 58 222 0 0-58c0-12-31-38-48-52-26-23-46-40-46-61l0-58c0-21 20-38 46-61 17-14 48-40 48-52l0-58-222 0z m161 292l0 11c0 11 9 20 20 20 10 0 19-8 19-20l0-11c0-10-9-19-19-19-11 0-20 9-20 19z" glyph-name="hourglass" unicode=""/><glyph d="M512 294c0 0 0 2 0 2 0 1 0 1-1 2 0 1 0 2 0 3 0 0-1 1-1 2 0 0 0 1-1 1 0 1-1 2-1 3 0 0 0 0 0 0l-121 147c-4 5-10 8-17 8l-228 0c-7 0-13-3-17-8l-120-147c0 0-1 0-1 0 0-1-1-1-1-3 0 0 0-1-1-1 0-1 0-1 0-2 0-1-1-2-1-3 0 0 0-1 0-2 0 0 0-2 0-2 0-1 0-1 0-1l0-200c-1-23 19-43 44-43l422 0c25 0 45 20 45 44l0 199c0 0 0 1 0 1z m-360 123l207 0 83-100-73 0c-6 0-12-4-17-8l-50-59-92 0-50 59c-5 5-10 8-17 8l-74 0z m315-322l-422 0 0 178 88 0 48-56c6-7 14-11 23-11l104 0c9 0 16 5 23 11l48 56 88 0z" glyph-name="inbox" unicode=""/><glyph d="M241 101c-4 0-9 2-12 5-6 4-9 11-7 19l27 139-15-9c-9-5-21-2-26 8-5 9-3 21 7 26l52 30c6 4 15 3 21-1 6-5 9-12 8-20l-29-144 24 10c10 4 21 0 25-10 5-10 0-22-10-26l-57-25c-2-1-5-2-8-2z m55 266c5 5 8 13 8 20 0 7-2 14-8 19-5 5-12 9-19 9-8 0-15-3-20-9-5-5-8-12-8-19 0-7 3-15 8-20 5-5 12-8 20-8 7 0 14 3 19 8z m216-111c0 141-115 256-256 256-141 0-256-115-256-256 0-141 115-256 256-256 141 0 256 115 256 256z m-45 0c0-117-94-211-211-211-117 0-211 94-211 211 0 117 94 211 211 211 117 0 211-94 211-211z" glyph-name="information" unicode=""/><glyph d="M282 342c5-5 6-13 5-20l-41-211c10 4 22 0 27-10 6-10 2-24-9-30l-14-8c-5-2-11-4-17-4-7 0-14 2-20 7-12 9-17 22-14 36l39 204-9 0c-13 0-23 10-23 22 0 13 10 23 23 23l36 0c7 0 13-4 17-9z m-10 95c-14 0-26-11-26-26 0-14 12-26 26-26 15 0 26 12 26 26 0 15-12 26-26 26z" glyph-name="italic" unicode=""/><glyph d="M506 338l-94 100c-5 4-10 7-16 7l-280 0c-6 0-12-3-16-7l-94-100c-8-9-8-22 1-31l233-234c5-5 10-7 16-7 6 0 12 2 16 7l233 234c9 9 9 22 1 31z m-354-32l42-120-121 120z m123 95l36-56-110 0 36 56z m-19-280l0 1-62 184 124 0-62-184z m104 185l79 0-121-120z m81 39l-85 0-35 56 65 0z m-315 56l65 0-35-56-85 0z" glyph-name="jewel" unicode=""/><glyph d="M429 390l0-268c0-12-10-22-23-22-12 0-22 10-22 22l0 112-256 0 0-112c0-12-10-22-22-22-13 0-23 10-23 22l0 268c0 12 10 22 23 22 12 0 22-10 22-22l0-112 256 0 0 112c0 12 10 22 22 22 13 0 23-10 23-22z m-396-33c-12 0-22-10-22-23l0-157c0-12 10-22 22-22 13 0 23 10 23 22l0 157c0 13-10 23-23 23z m446 0c-13 0-23-10-23-23l0-157c0-12 10-22 23-22 12 0 22 10 22 22l0 157c0 13-10 23-22 23z" glyph-name="lifting" unicode=""/><glyph d="M256 512c-91 0-167-76-167-169 0-56 22-102 67-133l0-54c0-6 4-12 8-16 4-4 10-6 16-6 0 0 1 0 2 0l153 12c12 1 22 10 22 22l0 42c39 28 67 77 67 133-1 93-77 169-168 169z m67-270c-7-4-11-12-11-19l0-34-112-9 0 43c0 7-3 15-10 19-38 22-56 56-56 101 0 69 55 124 122 124 67 0 122-55 122-124 0-44-20-82-55-101z m31-143c1-13-8-23-21-24l-152-12c0 0-1 0-1 0-12 0-21 9-23 21-1 12 9 23 21 24l152 11c13 1 23-8 24-20z m-48-71c1-12-9-22-21-24l-55-4c0 0-1 0-1 0-12 0-21 9-23 21-1 12 9 22 21 24l55 4c12 1 23-8 24-21z m38 316c-1-10-9-18-19-18-1 0-1 0-2 0-10 1-18 11-17 21 3 32-24 44-28 45-10 4-15 15-11 25 3 10 14 15 24 12 21-8 58-35 53-85z" glyph-name="lightbulb" unicode=""/><glyph d="M505 156l-132 133c-9 9-23 9-32 0l-43-44-53 53 44 43c9 9 9 23 0 32l-133 132c-9 9-22 9-31 0l-118-118c-5-4-7-10-7-16 0-6 2-11 7-15l132-133c5-4 10-7 16-7 5 0 11 3 15 7l44 44 52-53-43-43c-9-9-9-23 0-32l132-132c5-5 10-7 16-7 6 0 11 2 15 7l119 118c9 9 9 23 0 31z m-350 114l-101 101 87 87 101-101-28-28-17 17c-9 9-23 9-32 0-9-9-9-23 0-32l17-16z m216-216l-101 101 28 28 17-17c4-5 10-7 16-7 5 0 11 2 15 7 9 9 9 23 0 32l-17 16 28 28 101-101z" glyph-name="link" unicode=""/><glyph d="M207 245c0-12-10-22-22-22l-35-2c-5 0-10 2-14 6l-129 130c-5 5-7 10-7 16 0 7 2 12 7 16l116 116c9 9 23 9 32 0l130-130c9-9 9-23 0-31-9-9-23-8-32 0l-114 115-85-85 107-107 23 0c13 0 23-10 23-22z m298-90l-129 129c-4 5-9 6-14 6l-35-1c-12 0-22-10-22-22 0-12 10-22 22-22l24 0 108-107-86-85-114 115c-9 9-23 9-32 0-9-9-9-23 0-31l130-130c5-5 10-7 16-7 6 0 12 2 16 7l116 116c5 4 7 10 7 16 0 6-2 11-7 16z m-166 231c13 0 23 10 23 22l0 56c0 12-10 22-23 22-12 0-22-10-22-22l0-56c0-12 10-22 22-22z m66-69l55 0c12 0 23 10 23 22 0 13-11 23-23 23l-55 0c-13 0-23-10-23-23 0-12 10-22 23-22z m-232-187c-13 0-23-10-23-23l0-55c0-12 10-23 23-23 12 0 22 11 22 23l0 55c0 13-10 23-22 23z m-69 65l-56 0c-12 0-22-10-22-22 0-13 10-23 22-23l56 0c12 0 22 10 22 23 0 12-10 22-22 22z" glyph-name="link-broken" unicode=""/><glyph d="M508 429c0-19-15-34-34-34l-306 0c-19 0-34 15-34 34 0 18 15 33 34 33l306 0c19 0 34-15 34-33z m-340-206l174 0c18 0 33 15 33 33 0 18-15 33-33 33l-174 0c-19 0-34-15-34-33 0-18 15-33 34-33z m245-106l-245 0c-19 0-34-15-34-34 0-18 15-33 34-33l245 0c19 0 34 15 34 33 0 19-15 34-34 34z m-375 348c-10 0-19-4-26-11-6-7-11-16-11-25 0-10 4-19 11-26 6-7 16-11 25-11 10 0 19 4 26 11 7 7 10 16 10 26 0 9-3 18-10 25-6 7-16 11-25 11z m0-173c-10 0-19-4-26-10-6-7-11-17-11-26 0-9 4-19 11-26 6-6 16-10 25-10 10 0 19 4 26 10 7 7 10 17 10 26 0 9-3 19-10 26-6 6-16 10-25 10z m0-172c-10 0-19-4-26-11-6-7-11-16-11-26 0-9 4-18 11-25 6-7 16-11 25-11 10 0 19 4 26 11 7 7 10 16 10 25 0 10-3 19-10 26-6 7-16 11-25 11z" glyph-name="list" unicode=""/><glyph d="M256 369c-12 0-22 10-22 22l0 96c0 12 10 22 22 22 12 0 22-10 22-22l0-96c0-12-10-22-22-22z m-66-22c10 8 12 21 5 31l-57 78c-7 10-21 12-31 5-10-7-12-21-5-31l56-78c5-6 11-9 18-9 5 0 10 1 14 4z m-41-56c3 12-3 25-15 28l-91 29c-12 4-25-2-28-14-4-11 3-24 14-28l92-29c2-1 4-2 6-2 10 0 18 7 22 16z m-106-127l91 29c12 4 18 16 15 28-4 12-17 18-28 14l-92-29c-11-4-18-16-14-28 3-9 12-15 21-15 2 0 5 0 7 1z m95-108l57 78c7 10 5 23-5 31-10 7-24 5-31-5l-57-78c-7-10-5-24 5-31 4-3 9-4 13-4 7 0 14 3 18 9z m140-31l0 96c0 12-10 22-22 22-12 0-22-10-22-22l0-96c0-12 10-22 22-22 12 0 22 10 22 22z m127 26c10 7 12 21 5 31l-57 78c-7 10-21 12-31 5-10-8-12-21-5-31l56-78c5-6 12-9 18-9 5 0 10 1 14 4z m92 127c4 11-3 24-14 27l-92 30c-11 4-24-3-28-15-3-11 3-24 15-27l91-30c2 0 5-1 7-1 9 1 18 7 21 16z m-106 99l92 29c11 4 18 16 14 28-4 12-16 18-28 14l-91-29c-12-4-18-16-15-28 3-9 12-16 22-16 2 0 4 1 6 2z m-38 75l57 78c7 10 5 24-5 31-10 7-24 5-32-5l-56-78c-7-10-5-23 5-31 4-3 9-4 13-4 7 0 14 3 18 9z" glyph-name="loading" unicode=""/><glyph d="M381 468c-32 28-77 44-125 44-48 0-93-16-125-44-39-34-59-86-59-151 0-139 161-304 168-310 5-5 10-7 16-7 6 0 12 2 16 7 7 6 168 171 168 310 0 65-20 117-59 151z m-125-413c-15 17-39 45-62 78-50 71-77 135-77 184 0 139 106 150 139 150 129 0 139-115 139-150 0-98-99-218-139-262z m0 361c-49 0-88-41-88-90 0-50 39-90 88-90 49 0 88 41 88 90 0 50-39 90-88 90z m0-141c-27 0-50 23-50 51 0 29 23 51 50 51 27 0 50-22 50-51 0-28-23-51-50-51z" glyph-name="location" unicode=""/><glyph d="M406 328l-16 0 0 39c0 82-56 139-134 139-78 0-134-57-134-139l0-39-16 0c-13 0-23-10-23-22l0-278c0-12 10-22 23-22l300 0c13 0 23 10 23 22l0 278c0 12-10 22-23 22z m-239 39c0 57 37 95 89 95 52 0 89-38 89-95l0-39-178 0z m217-317l-256 0 0 234 256 0z" glyph-name="lock" unicode=""/><glyph d="M406 328l-239 0 0 39c0 57 36 95 88 95 38 0 68-20 81-54 4-12 17-17 29-13 11 5 17 17 12 29-19 51-65 82-122 82-77 0-133-57-133-139l0-39-16 0c-13 0-23-10-23-22l0-278c0-12 10-22 23-22l300 0c13 0 23 10 23 22l0 278c0 12-10 22-23 22z m-22-278l-256 0 0 234 256 0z" glyph-name="lock-open" unicode=""/><glyph d="M512 385c0 0 0 1 0 2 0 0 0 1 0 1 0 1-1 2-1 3 0 0 0 1 0 2 0 0-1 1-1 2-1 0-1 1-1 2 0 0 0 0 0 0-1 1-1 1-1 1-1 1-2 2-2 2-1 1-1 1-2 1 0 1-1 1-1 1-1 1-2 1-2 1-1 1-1 1-2 2 0 0-1 0-2 0-1 0-1 1-2 1-1 0-2 0-2 0-1 0-2 0-2 0l-469 0c0 0-1 0-1 0-1 0-2 0-3 0 0 0-1-1-2-1 0 0-2 0-2 0-1 0-1-1-2-2 0 0-1 0-1-1-1 0-2 0-2-1-1 0-1-1-2-1 0 0-1-1-1-2-1 0-1 0-2-1 0 0 0 0 0 0 0-1-1-2-1-2 0-1 0-2-1-2 0-1 0-1 0-2 0-1-1-1-1-3 0 0 0-1 0-1 0-1 0-2 0-2 0 0 0-1 0-1l0-256c0-12 10-22 22-22l468 0c12 0 22 10 22 22l-1 257c0-1 0 0 0 0z m-90-23l-166-124-166 124z m-377-212l0 189 198-146c4-3 8-5 13-5 5 0 9 2 13 5l198 146 0-189z" glyph-name="mail" unicode=""/><glyph d="M502 430l-117 55c-1 0-1 0-1 0-1 1-2 1-2 1-1 0-2 0-2 0-1 0-2 0-3 0 0 0-1 0-2 0 0 0-2 0-2 0-1 0-2-1-2-1-1 0-1 0-1 0l-110-51-111 51c0 0 0 0-1 0-1 1-2 1-2 1-1 0-2 0-2 0-1 0-2 0-3 0 0 0-1 0-2 0 0 0-2 0-2 0-1 0-2-1-2-1-1 0-1 0-1 0l-121-55c-7-4-13-10-13-18l0-362c0-7 5-13 11-17 3-2 7-3 11-3 2 0 6 1 9 2l109 51 110-51c2 0 3-1 4-1 0 0 0 0 1 0 1 0 2 0 4 0 1 0 3 0 4 0 0 0 0 0 1 0 1 1 2 1 3 1l110 51 109-51c3-1 6-1 9-1 4 0 6 1 9 3 5 4 7 10 7 17l0 361c1 8-2 14-9 18z m-268-349l-73 36 0 319 73-37z m-195 318l78 37 0-319-78-36z m239 0l78 37 0-319-78-36z m195-318l-78 36 0 319 78-37z" glyph-name="map" unicode=""/><glyph d="M440 332l0-221c0-12-10-22-23-22l-322 0c-13 0-23 10-23 22l0 221c0 12 10 24 23 24l123 0-30 30c-9 9-8 22 0 30 9 9 23 9 32 0l68-68c8-9 8-23 0-31l-68-69c-5-4-10-6-16-6-5 0-11 2-15 6-9 9-9 24 0 32l30 31-102 0 0-178 278 0 0 179-47 0c-12 0-22 10-22 22 0 12 10 22 22 22l69 0c13 0 23-12 23-24z" glyph-name="media-loop" unicode=""/><glyph d="M331 273l-234 184c-6 5-15 6-23 3-8-4-13-12-13-20l0-368c0-8 5-16 13-20 3-1 7-2 9-2 5 0 10 2 14 5l234 184c6 4 8 10 8 17 0 7-3 13-8 17z m-225-155l0 276 175-138z m345 313l0-354c0-14-11-25-25-25-14 0-25 11-25 25l0 354c0 14 11 25 25 25 14 0 25-11 25-25z" glyph-name="media-next" unicode=""/><glyph d="M184 440l0-368c0-15-13-27-28-27-16 0-28 12-28 27l0 368c0 15 12 27 28 27 15 0 28-12 28-27z m172 27c-15 0-28-12-28-27l0-368c0-15 13-27 28-27 16 0 28 12 28 27l0 368c0 15-12 27-28 27z" glyph-name="media-pause" unicode=""/><glyph d="M387 273l-234 184c-7 5-16 6-23 3-8-4-13-12-13-20l0-368c0-8 5-16 13-20 3-1 6-2 9-2 5 0 10 2 14 5l234 184c5 4 8 10 8 17 0 7-3 13-8 17z m-226-155l0 276 176-138z" glyph-name="media-play" unicode=""/><glyph d="M438 460c-8 4-17 2-23-3l-231-184c-6-4-9-10-9-17 0-7 4-13 9-17l231-184c4-3 9-5 14-5 3 0 6 1 9 2 8 4 13 12 13 20l0 368c0 8-5 16-13 20z m-32-341l-173 137 173 137z m-300 312l0-354c0-14-11-25-25-25-14 0-25 11-25 25l0 354c0 14 11 25 25 25 14 0 25-11 25-25z" glyph-name="media-previous" unicode=""/><glyph d="M256 42c-118 0-214 96-214 214 0 118 96 214 214 214 118 0 214-96 214-214 0-118-96-214-214-214z m0 378c-91 0-164-73-164-164 0-91 73-164 164-164 91 0 164 73 164 164 0 91-73 164-164 164z" glyph-name="media-record" unicode=""/><glyph d="M380 345c-24 0-82-58-125-100-65-62-126-123-175-123l-30 0c-12 0-22 10-22 23 0 12 10 22 22 22l30 0c31 0 94 62 144 111 61 59 114 112 156 112l28 0-30 29c-9 9-9 22 0 31 9 9 23 9 32 0l68-69c5-4 7-10 7-15 0-6-2-12-7-16l-69-68c-4-5-10-7-16-7-5 0-11 3-15 7-9 9-9 24 0 32l30 31z m29-115c-9 9-23 9-32 0-9-9-9-23 0-32l31-31-29 0c-18 0-49 27-79 55-9 8-23 8-32-1-8-8-8-23 1-32 47-43 78-67 111-67l28 0-30-29c-9-9-9-22 0-31 4-5 10-6 15-6 6 0 12 2 16 6l68 69c5 4 7 10 7 15 0 6-2 12-7 16z m-359 115l30 0c24 0 59-30 86-55 5-4 10-6 15-6 7 0 13 2 17 7 8 9 8 24-2 32-43 40-80 67-116 67l-30 0c-12 0-22-10-22-22 0-12 10-23 22-23z" glyph-name="media-shuffle" unicode=""/><glyph d="M467 442c0 14-11 25-25 25l-378 0c-14 0-25-11-25-25l0-378c0-14 11-25 25-25l378 0c14 0 25 11 25 25z m-50-353l-328 0 0 328 328 0z" glyph-name="media-stop" unicode=""/><glyph d="M505 385c-4 3-9 5-15 5l-117 0 0 66c0 13-11 23-24 23l-186 0c-13 0-24-10-24-23l0-66-117 0c-12 0-22-8-22-20l0-314c0-13 10-23 22-23l468 0c12 0 22 10 22 23l0 313c0 6-2 11-7 16z m-321 49l144 0 0-44-144 0z m283-356l-422 0 0 267 422 0z m-302 136c0 11 9 20 20 20l49 0 0 49c0 11 9 20 19 20 11 0 20-9 20-20l0-49 54 0c11 0 20-9 20-20 0-10-9-19-20-19l-54 0 0-53c0-10-9-19-20-19-10 0-19 8-19 19l0 53-49 0c-11 0-20 9-20 19z" glyph-name="medical" unicode=""/><glyph d="M434 381l-356 0c-20 0-36 16-36 36 0 20 16 37 36 37l356 0c20 0 36-17 36-37 0-20-16-36-36-36z m36-125c0 20-16 36-36 36l-356 0c-20 0-36-16-36-36 0-20 16-36 36-36l356 0c20 0 36 16 36 36z m0-161c0 20-16 36-36 36l-356 0c-20 0-36-16-36-36 0-20 16-37 36-37l356 0c20 0 36 17 36 37z" glyph-name="menu" unicode=""/><glyph d="M490 479l-468 0c-12 0-22-10-22-23l0-284c0-12 10-22 22-22l262 0 0-94c0-10 7-18 15-21 3-2 6-2 9-2 6 0 13 3 17 8l92 109 73 0c12 0 22 10 22 22l0 284c0 13-10 23-22 23z m-23-284l-60 0c-6 0-14-4-18-8l-61-71 0 56c0 12-7 23-20 23l-263 0 0 239 422 0z m-363 161c0 12 10 22 22 22l161 0c12 0 22-10 22-22 0-12-10-22-22-22l-161 0c-12 0-22 10-22 22z m244-17c-4 4-7 10-7 16 0 6 2 11 7 15 4 5 10 7 15 7 7 0 12-2 16-7 4-4 7-10 7-15 0-7-3-12-7-16-4-5-10-7-16-7-5 1-11 3-15 7z" glyph-name="message" unicode=""/><glyph d="M405 373l-108-232c-9-24-26-38-44-38-15 0-28 8-35 20-8 14-8 32 2 47l141 227c7 11 22 15 34 9 11-6 16-20 10-33z m38-67c-8 9-22 10-32 1-9-8-9-22-1-32 37-40 57-92 57-147 0-12 10-22 23-22 12 0 22 10 22 22 0 66-24 130-69 178z m-169 37c12-1 23 8 24 20 1 12-8 23-20 24-8 0-15 1-22 1-141 0-256-117-256-261 0-12 10-22 22-22 13 0 23 10 23 22 0 120 94 216 211 216 6 1 12 0 18 0z" glyph-name="meter" unicode=""/><glyph d="M380 22c0-12-10-22-23-22l-203 0c-13 0-23 10-23 22 0 13 10 23 23 23l82 0 0 37c0 11 9 20 20 20 11 0 20-9 20-20l0-37 82 0c12 0 22-10 22-23z m-5 329c-11 0-20-9-20-20l0-145c0-8-3-16-9-21-5-6-13-9-20-9l-140 0c-7 0-15 3-20 9-6 6-9 13-9 21l0 145c0 11-9 20-20 20-11 0-20-9-20-20l0-145c0-18 7-36 20-49 13-13 31-20 49-20l140 0c18 0 36 7 49 20 13 14 20 31 20 49l0 145c0 11-9 20-20 20z m-179-152c-8 9-12 20-12 31l0 232c0 12 4 23 12 33 9 11 21 17 33 17l54 0c25 0 45-27 45-49l0-231c0-23-20-48-45-48l-54-1c-12 0-24 5-33 16z m33 31c0-1 1-3 3-4l48 0c1 1 3 3 3 5l0 232c0 1-2 3-3 4l-48 0c-2-1-3-3-3-5z" glyph-name="microphone" unicode=""/><glyph d="M378 231l-244 0c-14 0-25 11-25 25 0 14 11 25 25 25l244 0c14 0 25-11 25-25 0-14-11-25-25-25z" glyph-name="minus" unicode=""/><glyph d="M512 440c0 12-10 22-22 22l-468 0c-12 0-22-10-22-22l0-290c0-12 10-22 22-22l468 0c12 0 22 10 22 22z m-45-267l-422 0 0 244 422 0z m-80-101c0-12-10-22-22-22l-218 0c-12 0-22 10-22 22 0 13 10 23 22 23l217 0c13 0 23-10 23-23z" glyph-name="monitor" unicode=""/><glyph d="M512 254c0-6-2-11-7-15l-78-78c-5-5-10-6-16-6-5 0-11 2-15 6-9 9-9 24 0 32l40 41-158 0 0-158 41 41c9 9 23 8 32 0 9-9 8-23 0-32l-79-78c-4-5-10-7-16-7-6 0-11 2-16 7l-78 78c-9 8-9 22 0 31 9 9 23 9 31 0l41-40 0 158-158 0 41-41c9-9 9-24 0-33-5-4-10-6-16-6-5 0-11 2-15 6l-79 79c-5 4-7 9-7 15 0 6 2 12 7 16l78 78c9 9 23 9 32 0 9-9 8-22 0-31l-41-39 158 0 0 158-41-40c-9-9-23-9-31 0-9 9-8 23 0 31l78 78c9 9 23 9 32 0l79-78c9-8 9-22 0-31-5-5-10-7-16-7-6 0-12 2-16 7l-41 40 0-158 158 0-41 40c-9 9-9 21 0 30 9 9 23 9 32 0l78-78c5-4 7-10 7-16z" glyph-name="move" unicode=""/><glyph d="M495 477c0 7-3 13-9 17-5 5-11 6-18 5l-280-57c-11-2-18-11-18-22l0-255c-16 9-35 14-55 14-25 0-49-8-68-24-20-16-30-36-30-60 0-48 44-84 98-84 26 0 49 7 67 22 19 16 29 37 29 60l0 0 2 218 236 48 0-132c-15 8-33 12-53 12-25 0-49-7-68-22-20-16-31-37-31-61 0-47 45-84 99-84 51 0 94 34 98 79 0 0 0 3 0 9z m-340-410c-10-9-24-11-40-11-29 0-54 16-54 39 0 10 5 19 15 26 10 9 24 12 40 12 29 0 54-18 54-40 0-10-5-18-15-26z m59 284l0 51 236 48 0-50z m182-234c-29 0-54 18-54 40 0 10 5 18 14 26 11 9 25 12 40 12 28 0 55-15 55-36l0-6c-6-21-27-36-55-36z" glyph-name="music" unicode=""/><glyph d="M364 125c-25 0-46-19-55-36l-121 0c-10 0-15 5-15 15l0 124 136 0c9-22 30-36 55-36 33 0 60 27 60 59 0 32-27 59-60 59-25 0-46-15-55-37l-136 0 0 119c0 0-2 1-2 1 22 9 37 30 37 54 0 33-27 59-59 59-33 1-60-26-60-58 0-24 16-46 38-55 0 0 1 0 1 0l0-289c0-34 26-59 60-59l121 0c9-23 30-39 55-39 33 0 60 27 60 59 0 32-28 60-60 60z m0 152c14 0 26-12 26-26 0-14-12-26-26-26-15 0-26 12-26 26 0 14 11 26 26 26z m-216 197c15 0 26-12 26-26 0-14-11-26-26-26-14 0-26 12-26 26 0 14 12 26 26 26z m216-436c-15 0-26 12-26 26 0 14 11 26 26 26 14 0 26-12 26-26 0-14-12-26-26-26z" glyph-name="network-1" unicode=""/><glyph d="M429 447c0 33-27 59-59 59-33 0-60-26-60-59 0-24 15-45 37-54-1-10-7-72-94-104-40-15-69-34-86-54l0 158c22 9 36 30 36 54 0 33-28 59-60 59-33 0-58-26-58-59 0-24 15-45 37-54l0-274c-22-9-38-30-38-54 0-33 26-59 58-59 33 0 61 26 61 59 0 24-14 45-37 54l0 18c0 6 3 74 102 110 118 43 124 135 124 146 22 9 37 30 37 54z m-287 26c15 0 26-12 26-26 0-13-12-25-26-25-14 0-25 12-25 25 0 14 11 26 25 26z m0-434c-14 0-25 12-25 26 0 13 12 25 25 25 15 0 26-12 26-25 0-14-12-26-26-26z m228 383c-15 0-26 12-26 25 0 14 12 26 26 26 14 0 25-12 25-26 0-13-11-25-25-25z" glyph-name="network-2" unicode=""/><glyph d="M462 119l0 120c0 34-24 62-58 62l-126 0 0 91c0 0 0 1 0 1 22 9 37 30 37 54 0 33-26 59-59 59-33 0-59-26-59-59 0-24 16-45 37-54 0 0 0-1 0-1l0-91-126 0c-34 0-58-28-58-62l0-120c-22-9-38-30-38-54 0-33 25-59 58-59 32 0 60 26 60 59 0 24-19 45-36 54l0 120c0 10 5 17 13 17l127 0 0-137c-23-9-37-30-37-54 0-33 26-59 59-59 33 0 59 26 59 59 0 24-14 45-37 54l0 137 126 0c9 0 13-8 13-17l0-120c-16-9-35-30-35-54 0-33 28-59 60-59 33 0 58 26 58 59 0 24-16 45-38 54z m-206 354c14 0 26-12 26-26 0-13-12-25-26-25-14 0-26 12-26 25 0 14 12 26 26 26z m-187-434c-14 0-26 12-26 26 0 13 12 25 26 25 14 0 26-12 26-25 0-14-12-26-26-26z m187 0c-14 0-26 12-26 26 0 13 12 25 26 25 14 0 26-12 26-25 0-14-12-26-26-26z m187 0c-14 0-26 12-26 26 0 13 12 25 26 25 14 0 26-12 26-25 0-14-12-26-26-26z" glyph-name="network-3" unicode=""/><glyph d="M215 450c0 33-26 59-59 59-32 0-61-26-61-59 0-25 16-47 33-55l0-278c-17-8-33-30-33-55 0-33 28-59 60-59 33 0 59 26 59 59 0 25-14 47-36 55l0 278c22 8 37 30 37 55z m-58 25c14 0 26-11 26-25 0-14-12-26-26-26-13 0-25 12-25 26 0 14 11 25 25 25z m0-438c-13 0-25 11-25 25 0 14 12 26 25 26 14 0 26-12 26-26 0-14-12-25-26-25z m227 80l0 278c17 8 33 30 33 55 0 33-28 59-61 59-33 0-59-26-59-59 0-25 15-47 37-55l0-278c-22-8-37-30-37-55 0-33 26-59 59-59 32 0 61 26 61 59 0 25-16 47-33 55z m-29 358c13 0 25-11 25-25 0-14-12-26-25-26-14 0-26 12-26 26 0 14 12 25 26 25z m0-438c-14 0-26 11-26 25 0 14 12 26 26 26 13 0 25-12 25-26 0-14-11-25-25-25z" glyph-name="network-4" unicode=""/><glyph d="M278 119l0 273c0 0 0 1 0 1 21 9 36 30 36 54 0 33-26 59-58 59-32 0-58-26-58-59 0-24 15-45 36-54 0 0 0-1 0-1l0-273c-21-9-36-30-36-54 0-33 26-59 58-59 32 0 58 26 58 59 0 24-15 45-36 54z m-22 354c14 0 25-12 25-26 0-13-11-25-25-25-14 0-25 12-25 25 0 14 11 26 25 26z m0-434c-14 0-25 12-25 26 0 13 11 25 25 25 14 0 25-12 25-25 0-14-11-26-25-26z" glyph-name="network-5" unicode=""/><glyph d="M454 495c-5 4-12 4-18 1l-117-55-118 55c-1 0-1 0-1 1-1 1-2 1-2 1-1 0-2 0-3 0 0 0-1 0-2 0 0 0-2 0-2 0-1 0-2 0-2 0-1 0-2-1-3-1 0 0 0 0-1-1l-128-59c-7-3-12-10-12-17l0-387c0-6 5-12 10-16 3-3 7-3 11-3 3 0 6 0 9 2l118 55 118-55c1-1 2-2 3-2 0 0 0 0 1 0 1 0 2 0 4 0 2 0 2 0 4 0 0 0 0 0 1 0 1 1 2 1 3 2l125 59c7 3 10 10 10 17l0 387c0 6-2 12-8 16z m-153-431l-90 41 0 343 90-41z m-218 343l90 41 0-343-90-41z m340-302l-84-41 0 343 84 41z" glyph-name="pamphlet" unicode=""/><glyph d="M473 308c8-7 8-20 0-28l-221-220c-37-38-79-57-119-57-10 0-20 1-30 4-39 10-69 40-80 81-13 50 5 105 50 150l247 246c40 40 96 27 128-5 44-44 32-96 2-125l-249-248c-32-33-70-31-89-11-19 19-21 55 12 89l168 168c8 8 20 8 28 0 8-8 8-20 0-28l-169-168c-15-15-17-29-12-34 6-6 20-3 34 11l249 249c25 25 14 53-2 70-19 19-50 28-73 4l-246-246c-35-35-50-76-40-112 7-27 27-47 53-53 34-10 74 6 110 42l222 222c7 7 19 7 27-1z" glyph-name="paperclip" unicode=""/><glyph d="M496 478l-18 18c-11 10-24 16-39 16-15 0-28-6-39-16l-352-352c-2-3-3-5-5-8l-41-105c-4-9-2-18 5-24 4-5 10-7 15-7 3 0 6 1 9 2l105 41c3 1 6 3 8 5l352 352c22 21 22 56 0 78z m-414-365l32-31-52-20z m382 318l-307-307-32 32 306 308c3 3 6 3 8 3 2 0 5 0 8-3l18-18c4-4 4-10-1-15z" glyph-name="pencil" unicode=""/><glyph d="M493 442c-1 1-1 1-2 2l-60 52c-8 8-19 12-31 10-11-1-22-5-29-13-1 0-1-1-2-2l-59-74c-16-17-15-42 1-59 1-1 2-2 3-2l30-20c-2-11-17-41-72-96-55-55-86-70-96-72l-20 30c0 1-1 2-2 3-17 16-43 16-59 1l-74-59c0-1-1-1-2-2-16-16-17-44-2-60l52-60c1 0 1 0 1-1 10-10 26-14 43-14 31 0 66 12 84 20 36 14 105 47 174 116 51 52 93 113 117 175 10 27 33 96 5 125z m-154-269c-103-103-219-131-238-122l-51 59 72 57 20-30c0 0 0-1 1-1 7-9 16-13 27-14 11 0 44-2 132 87 22 21 89 88 86 132 0 11-5 20-13 27 0 0-1 1-2 1l-28 20 57 73 58-51c10-19-18-135-121-238z" glyph-name="phone" unicode=""/><glyph d="M490 451l-468 0c-12 0-22-10-22-22l0-346c0-12 10-22 22-22l468 0c12 0 22 10 22 22l0 346c0 12-10 22-22 22z m-23-45l0-186-37 31c-8 7-20 7-28 0l-60-50-140 121c-8 7-20 7-28 1l-129-104 0 187z m-422-300l0 55 142 116 140-122c8-7 20-7 29 0l60 50 51-44 0-55z m245 225c0 22 18 40 41 40 23 0 41-18 41-40 0-23-18-41-41-41-23 0-41 18-41 41z" glyph-name="photo" unicode=""/><glyph d="M510 371l-53-255c-1-8-8-14-16-14-1 0-2 0-3 1-9 2-15 11-13 19l50 239-320 65-8-36c-2-9-11-14-20-13-8 3-14 11-12 20l11 52c3 9 11 15 20 13l352-71c4-1 8-4 10-8 2-3 3-8 2-12z m-104-304c0-12-10-22-22-22l-362 0c-12 0-22 10-22 22l0 272c0 13 10 23 22 23l362 0c12 0 22-10 22-23z m-361 250l0-137 94 76c7 6 18 6 26-1l105-93 44 38c8 6 16 6 23 0l19-19 0 136z m311-228l0 41-31 29-42-38c-8-6-18-6-25 0l-108 94-105-86 0-40z m-92 138c19 0 34 15 34 33 0 19-16 34-34 34-19 0-34-15-34-34-1-18 15-33 34-33z" glyph-name="photo-group" unicode=""/><glyph d="M462 462c-24 26-57 39-92 39-35 0-67-13-92-39l-228-228c-26-25-39-58-39-92 0-35 13-68 39-92 24-25 57-39 92-39 35 0 68 13 92 39l229 228c25 25 38 58 38 93 0 35-13 67-39 91z m-259-381c-17-16-38-25-61-25-23 0-45 9-61 25-16 16-25 38-25 60 0 23 9 45 25 61l93 93c26-17 89-62 122-121z m228 228l-107-106c-35 57-92 100-122 121l107 107c17 16 38 25 61 25 23 0 45-9 61-25 16-16 25-38 25-60 0-23-9-45-25-62z m-111 66c8-8 8-20 0-28l-27-27c-4-4-9-6-14-6-5 0-10 2-14 6-7 8-7 20 0 28l27 27c8 7 20 7 28 0z m45 45c3-4 6-10 6-16 0-6-2-12-6-16-4-3-10-6-16-6-6 0-12 2-16 6-4 5-6 10-6 16 0 6 2 12 6 16 5 4 10 6 16 6 6 0 12-2 16-6z" glyph-name="pill" unicode=""/><glyph d="M505 365l-140 140c-9 9-23 9-32 0-1-1-42-43-26-98l-64-63c-35 11-124 29-191-37-9-9-9-23 0-32l96-96-141-141c-9-9-9-23 0-32 4-4 10-6 15-6 6 0 11 2 16 7l141 141 96-96c4-4 10-6 16-6 5 0 11 2 15 6 66 67 48 157 37 191l64 64c54-16 96 25 98 26 9 9 9 23 0 32z m-94-12c-8 4-18 2-25-5l-83-83c-6-6-9-16-5-24 0 0 10-25 11-57 2-33-5-60-20-83l-94 94-95 94c60 40 137 10 140 9 8-4 18-2 24 5l84 83c7 7 8 17 4 25-8 17-5 32 0 44l103-103c-11-4-27-7-44 1z m-132-121c1-2 8-18 8-35 0-11-9-19-20-19 0 0 0 0 0 0-11 1-20 10-19 20 0 7-3 16-4 18-5 11 0 22 10 26 10 4 21 0 25-10z" glyph-name="pin" unicode=""/><glyph d="M403 253c0-14-11-25-25-25l-100 0 0-94c0-14-11-25-25-25-14 0-25 11-25 25l0 94-94 0c-14 0-25 11-25 25 0 14 11 25 25 25l94 0 0 100c0 14 11 25 25 25 14 0 25-11 25-25l0-100 100 0c14 0 25-11 25-25z" glyph-name="plus" unicode=""/><glyph d="M256 248c-12 0-22 10-22 22l0 192c0 12 10 22 22 22 12 0 22-10 22-22l0-192c0-12-9-22-22-22z m211-8c0 82-45 155-117 191-11 5-24 1-30-10-6-11-1-25 10-30 57-29 93-87 93-151 0-93-75-168-167-168-92 0-167 75-167 168 0 65 36 122 93 151 11 6 16 19 10 30-6 11-19 16-30 10-72-36-117-109-117-191 0-117 94-212 211-212 117 0 211 95 211 212z" glyph-name="power" unicode=""/><glyph d="M508 268c-4 6-94 138-252 138-158 0-248-132-252-138-5-7-5-17 0-25 4-5 94-137 252-137 158 0 248 132 252 138 5 7 5 17 0 24z m-252-118c-107 0-181 76-206 106 25 31 98 106 206 106 107 0 181-76 206-106-26-31-99-106-206-106z m13 197c-25 4-49-3-69-18-40-30-49-88-18-129 15-20 36-32 61-36 4 0 9-1 12-1 20 0 39 7 56 18 40 31 49 89 18 130-14 20-36 33-60 36z m22-138c-12-10-28-14-43-11-16 2-30 10-39 22-19 27-14 64 12 83 12 10 28 14 43 11 16-2 30-10 39-22 19-27 14-64-12-83z m-2 80c4-4 7-10 7-15 0-6-3-12-7-16-4-4-10-6-16-6-6 0-11 2-15 6-5 5-7 10-7 16 0 6 2 11 7 15 4 5 10 7 15 7 6 0 12-3 16-7z" glyph-name="preview" unicode=""/><glyph d="M490 417l-112 0 0 67c0 10-5 17-13 17l-218 0c-8 0-13-7-13-17l0-67-112 0c-12 0-22-9-22-21l0-256c0-12 10-23 22-23l82 0-13-87c-1-6 0-12 4-17 4-4 9-7 15-7l292 0c6 0 11 3 15 8 4 4 6 10 5 15l-14 88 82 0c12 0 22 11 22 23l0 256c0 12-10 21-22 21z m-323 50l178 0 0-50-178 0z m-35-422l22 139 204 0 22-139z m335 116l-66 0-7 46c-2 9-9 16-19 16l-238 0c-10 0-18-7-20-16l-6-46-66 0 0 212 422 0z m-365 156c0 10 7 17 17 17l52 0c9 0 17-7 17-17 0-9-8-16-17-16l-52 0c-9 0-17 7-17 16z" glyph-name="print" unicode=""/><glyph d="M512 195c0-12-10-22-22-22l-105 0c-9 0-18 5-21 14l-17 47-54-184c-3-10-12-17-21-17 0 0-1 0-1 0-10 1-19 8-21 18l-72 311-43-173c-3-10-11-16-22-16l-91 0c-12 0-22 10-22 22 0 12 10 22 22 22l74 0 61 245c3 10 12 17 22 17 10 0 19-8 22-18l73-318 50 169c3 10 12 16 21 16 10 1 18-5 22-14l34-97 89 0c12 0 22-10 22-22z" glyph-name="pulse" unicode=""/><glyph d="M339 370c18-20 26-47 22-76-6-54-45-73-80-73-2 0-3 0-3 0l0-13c0-12-10-22-22-22-12 0-22 10-22 22l0 18c0 18 8 40 47 40 22 0 33 11 36 33 1 8 1 27-12 42-11 11-28 17-51 17-50 0-52-32-52-36 0-12-10-22-22-22-12 0-23 10-23 22 0 22 18 81 97 81 46 0 72-18 85-33z m-85-203c-7 0-14-3-19-8-5-5-8-13-8-20 0-7 2-14 8-19 5-5 12-9 19-9 8 0 15 3 20 9 5 5 8 12 8 19 0 7-3 15-8 20-5 5-12 8-20 8z m258 89c0-141-115-256-256-256-141 0-256 115-256 256 0 141 115 256 256 256 141 0 256-115 256-256z m-45 0c0 117-94 211-211 211-117 0-211-94-211-211 0-117 94-211 211-211 117 0 211 94 211 211z" glyph-name="question" unicode=""/><glyph d="M399 269c-41 40-98 63-165 67l0 59c0 9-7 17-15 21-9 3-19 1-25-5l-137-139c-9-9-9-23 0-32l137-139c6-6 16-8 25-5 8 4 15 12 15 21l0 60c44 1 149-3 187-71 4-7 11-11 19-11 2 0 4 0 6 0 10 3 17 11 17 22-1 3-1 88-64 152z m-191-49c-11-1-19-10-19-22l0-27-83 85 83 85 0-27c0-12 9-22 21-22 120 0 171-58 192-107-78 47-188 36-194 35z" glyph-name="reply" unicode=""/><glyph d="M449 269c-41 40-98 63-165 67l0 59c0 9-7 17-15 21-9 3-19 1-25-5l-138-139c-8-9-9-23 0-32l137-139c6-6 17-8 26-5 8 4 15 12 15 21l0 60c44 1 149-3 187-71 4-7 11-11 19-11 1 0 3 0 5 0 10 3 18 11 18 22-1 3 0 88-64 152z m-191-49c-11-1-19-10-19-22l0-27-83 85 83 85 0-27c0-12 9-22 21-22 120 0 171-58 192-107-78 47-188 36-194 35z m-83-88c9-8 9-22 0-31-4-5-10-7-15-7-6 0-12 2-16 7l-137 139c-8 9-8 23 0 31l137 139c9 9 23 9 31 0 9-9 9-23 0-32l-122-122z" glyph-name="reply-all" unicode=""/><glyph d="M456 332l0-221c0-12-10-22-22-22l-328 0c-12 0-22 10-22 22 0 13 10 23 22 23l306 0 0 178-280 0 31-32c8-8 8-23 0-32-5-4-11-6-16-6-6 0-11 2-16 6l-69 69c-4 4-6 10-6 15 0 6 2 12 6 16l69 68c9 9 23 9 32 0 9-9 8-22 0-31l-31-29 302 0c12 0 22-12 22-24z" glyph-name="return" unicode=""/><glyph d="M505 182l-69-69c-5-4-10-7-16-7-5 0-12 3-15 7l-71 69c-9 9-9 23-1 31 9 9 23 9 31 0l31-32 0 147-195 0c-12 0-22 10-22 23 0 12 10 22 22 22l220 0c12 0 20-10 20-22l0-169 33 32c9 9 24 8 33 0 8-9 8-23-1-32z m-193-32l-195 0 0 148 30-32c5-4 10-7 16-7 5 0 11 3 15 7 9 9 8 23 0 31l-70 70c-9 8-23 8-32 0l-69-69c-9-9-9-23 0-31 9-9 24-9 33 0l33 31 0-169c0-12 7-23 20-23l220 0c12 0 22 10 22 23 0 12-11 21-23 21z" glyph-name="retweet" unicode=""/><glyph d="M510 490c-1 11-9 20-20 21-141 11-242-57-305-143-34 11-71 7-105-12-33-18-61-49-78-87-4-9-3-19 5-26 6-6 17-8 25-3 36 19 76 15 100-9l98-98c0 0 0-1 0-1 24-23 28-64 9-99-4-9-2-19 4-26 4-4 10-6 16-6 3 0 6 0 9 2 38 18 69 45 88 78 19 34 23 71 11 106 25 18 48 38 67 61 59 67 85 149 76 242z m-435-194c24 23 54 38 85 32-9-15-16-31-23-46-18 10-40 15-62 14z m222-221c0 22-5 44-15 63 16 7 32 14 47 23 5-32-8-62-32-86z m-45 99l-78 79c39 105 137 217 293 214 5-186-148-267-215-293z m144 222c7-6 11-16 11-25 0-10-4-19-11-26-6-7-16-11-25-11-10 0-19 4-26 11-7 7-11 16-11 26 0 9 4 19 11 25 7 7 16 11 26 11 9 0 19-4 25-11z m-313-231c-26-26-27-77-27-87 0-12 10-22 22-22 0 0 1 0 1 0 12 0 61 1 86 26 15 16 19 32 19 43 0 15-6 29-18 41-28 28-63 19-83-1z m51-51c-6-5-18-9-31-11 2 13 6 25 11 30 4 4 7 6 11 6 3 0 6-2 10-5 3-3 5-7 5-9-1-4-4-8-6-11z" glyph-name="rocket" unicode=""/><glyph d="M263 161c0-12-10-22-23-22l-218 0c-12 0-22 10-22 22 0 13 10 23 22 23l218 0c13 0 23-10 23-23z m227 23l-19 0c-12 0-22-10-22-23 0-12 10-22 22-22l19 0c12 0 22 10 22 22 0 13-10 23-22 23z m-410 167c0 37 30 66 66 66 37 0 67-30 67-66 0-36-30-66-67-66-36 0-66 29-66 66z m44 0c0-12 10-22 22-22 13 0 23 10 23 22 0 12-10 22-23 22-12 0-22-10-22-22z m296-190c0-37-30-66-67-66-37 0-67 30-67 66 0 36 30 66 67 66 37 1 67-29 67-66z m-45 0c0 12-10 22-22 22-12 0-22-10-22-22 0-12 10-22 22-22 12 0 22 10 22 22z m-353 167l13 0c12 0 22 10 22 23 0 12-10 22-22 22l-13 0c-12 0-22-10-22-22 0-13 10-23 22-23z m490 23c0 12-10 22-22 22l-227 0c-12 0-22-10-22-22 0-13 10-23 22-23l227 0c12 0 22 10 22 23z" glyph-name="scale" unicode=""/><glyph d="M322 500c-95 0-173-79-173-174 0-41 14-78 37-108l-164-166c-9-10-9-25 0-35 5-5 11-7 18-7 6 0 12 2 17 7l164 166c28-20 63-32 100-32 95 0 173 78 173 174 0 96-77 175-172 175z m0-305c-71 0-128 58-128 130 0 72 57 130 128 130 70 0 128-58 128-130 0-72-58-130-128-130z m86 128c-1-10-10-17-19-17-1 0-2 0-3 0-10 2-18 11-16 22 3 29-29 44-31 44-9 5-13 16-9 26 4 9 16 14 26 10 2-1 60-27 52-85z m-41-43c4-3 7-10 7-15 0-6-2-12-7-16-4-4-10-6-15-6-6 0-12 2-16 6-4 4-7 10-7 16 0 5 3 12 7 15 4 4 10 7 16 7 5 0 11-2 15-7z" glyph-name="search" unicode=""/><glyph d="M444 372c-4 4-9 6-15 6l-56 0 0 10c0 66-54 118-116 118l-2 0c-62 0-116-52-116-118l0-10-56 0c-12 0-22-10-22-23l0-327c0-12 10-22 22-22l346 0c12 0 22 10 22 22l0 328c0 5-2 11-7 16z m-260 16c0 41 33 74 71 74l2 0c38 0 71-33 71-74l0-10-144 0z m222-338l-300 0 0 284 33 0 0-38c0-13 10-23 22-23 13 0 23 10 23 23l0 38 144 0 0-38c0-13 10-23 23-23 12 0 22 10 22 23l0 38 33 0z" glyph-name="shopping-bag" unicode=""/><glyph d="M461 189l-99-99c-5-5-11-8-18-8-6 0-12 3-17 8-10 9-10 25 0 35l56 56-316 0c-7 0-14 3-19 8-5 4-9 11-9 17l0 127c0 14 11 25 25 25 14 0 25-11 25-25l0-102 293 0-55 57c-10 9-10 25 0 35 9 9 25 9 35 0l99-99c10-10 10-26 0-35z m-393 188c7 0 14 3 19 8 5 5 9 12 9 20 0 7-3 14-9 19-5 5-12 8-19 8-7 0-15-3-20-8-5-5-8-12-8-19 0-8 3-15 8-20 5-4 13-8 20-8z" glyph-name="skip" unicode=""/><glyph d="M451 422c0 59-98 90-195 90-97 0-195-31-195-90 0 0 0-1 0-1 0 0 0-1 0-1l0-333c0-57 98-87 195-87 97 0 195 30 195 87l0 333c0 0 0 1 0 1 0 1 0 1 0 1z m-45-168c0-12-53-43-150-43-97 0-150 30-150 43l0 109c38-20 94-30 150-30 56 0 112 10 150 30z m-150 213c99 0 150-31 150-45 0-13-51-45-150-45-99 0-150 32-150 45 0 14 51 45 150 45z m0-422c-97 0-150 30-150 42l0 109c38-19 94-29 150-29 56 0 112 10 150 29l0-109c0-12-53-42-150-42z m95 228l0 28c0 10 9 19 19 19 11 0 20-9 20-19l0-28c0-10-9-19-20-19-10 0-19 8-19 19z" glyph-name="stack" unicode=""/><glyph d="M393 22c-4 0-8 1-12 4l-125 81-125-81c-8-5-18-5-25 0-7 6-11 15-9 24l40 139-118 100c-7 5-10 15-7 24 3 9 11 14 20 15l141 10 63 139c3 8 11 13 20 13 9 0 17-5 20-13l63-139 141-10c9 0 17-6 20-15 3-9 0-18-7-24l-117-99 39-139c3-9 0-19-8-24-4-3-9-5-14-5z m-137 134c4 0 8-1 12-4l88-57-27 96c-2 9 0 18 7 23l86 73-99 8c-8 1-15 6-19 13l-48 106-48-106c-4-7-11-12-19-13l-99-7 86-73c7-6 9-15 7-23l-27-97 88 57c4 3 8 4 12 4z" glyph-name="star" unicode=""/><glyph d="M452 403c5-4 10-6 15-6 7 0 13 3 17 8 9 8 8 23-1 31l-29 26-29 27c-9 8-24 7-32-2-8-9-7-23 2-32l12-11-22-25c-25 19-55 33-87 40-1 7-4 15-9 22-6 8-17 17-39 18 0 0 0 0-1 0-19 0-30-8-36-15-7-8-10-18-11-25-103-22-180-113-180-222 0-125 102-228 227-228 126 0 227 102 227 228 0 59-22 112-58 153l22 25z m-203-348c-100 0-182 81-182 182 0 101 82 183 182 183 101 0 183-82 183-183 0-101-82-182-183-182z m39 182c0-21-18-38-39-38-21 0-38 17-38 38 0 13 6 25 17 31l0 90c0 13 10 23 22 23 13 0 23-10 23-23l0-90c11-6 15-18 15-31z" glyph-name="stopwatch" unicode=""/><glyph d="M223 203c0 11-9 20-20 20l-72 0c-11 0-20-9-20-20l0-72c0-11 9-20 20-20l72 0c11 0 20 9 20 20z m-73-19l34 0 0-34-34 0z m356 187l-50 50 0 58c0 12-10 22-22 22l-356 0c-12 0-22-10-22-22l0-58-50-50c-4-4-6-10-6-16l0-57c0-12 10-20 22-20l468 0c12 0 22 8 22 21l0 56c0 6-2 12-6 16z m-94 85l0-27-312 0 0 27z m55-133l-422 0 0 23 45 44 332 0 45-44z m12-90l0-200c0-12-10-22-23-22l-76 0c-12 0-22 9-22 21l0 118-52 0 0-117c0-12-10-22-23-22l-227 0c-12 0-23 10-23 22l0 200c0 12 10 22 23 22 12 0 22-10 22-22l0-177 184 0 0 119c0 12 9 20 21 20l97 0c12 0 20-8 20-20l0-119 34 0 0 177c0 12 10 22 22 22 12 0 23-10 23-22z" glyph-name="store" unicode=""/><glyph d="M500 379c-8 8-19 11-29 11l-120 0 0 66c0 13-13 23-25 23l-140 0c-12 0-25-10-25-23l0-66-120 0c-23 0-41-17-41-39l0-276c0-23 18-42 41-42l429 0c23 0 41 19 41 42l0 275c1 11-3 21-11 29z m-133-34l0-267-222 0 0 267z m-161 89l100 0 0-44-100 0z m-161-89l66 0 0-267-66 0z m422-267l-66 0 0 267 66 0z" glyph-name="suitcase" unicode=""/><glyph d="M512 203c0-6-2-12-7-15l-103-104c-5-4-10-6-16-6-5 0-11 3-15 7-9 8-9 23 0 32l65 67-218 0c-12 0-22 10-22 22 0 12 10 22 22 22l218 0-65 64c-9 9-9 22 0 30 9 9 22 9 31 0l104-103c4-4 6-10 6-16z m-436 81l218 0c12 0 22 10 22 22 0 12-10 22-22 22l-218 0 65 67c9 9 9 24 0 32-9 9-22 9-31 1l-103-104c-5-3-7-9-7-15 0-6 2-12 7-16l103-103c5-5 10-7 16-7 5 0 11 2 15 7 9 9 9 21 0 30z" glyph-name="swap" unicode=""/><glyph d="M490 401l-329 0c-5 0-10-3-14-6l-139-122c-5-5-8-11-8-17 0-7 3-12 8-17l139-122c4-3 9-6 14-6l329 0c12 0 22 10 22 23l0 244c0 13-10 23-22 23z m-23-245l-297 0-114 100 114 100 297 0z m-316 126c7 6 17 10 26 10 9 0 19-4 26-10 6-7 10-17 10-26 0-9-4-19-10-26-7-6-17-10-26-10-9 0-19 4-26 10-6 7-10 17-10 26 0 9 4 19 10 26z" glyph-name="tag" unicode=""/><glyph d="M490 401l-329 0c-5 0-10-3-14-6l-139-122c-5-5-8-11-8-17 0-7 3-12 8-17l139-122c4-3 9-6 14-6l329 0c12 0 22 10 22 23l0 244c0 13-10 23-22 23z m-23-245l-297 0-114 100 114 100 297 0z m-222 70l30 30-30 30c-7 8-7 20 0 27 8 8 20 8 28 0l30-30 30 30c8 8 20 8 27 0 8-7 8-20 0-27l-29-30 30-30c7-8 7-20 0-27-4-4-9-6-14-6-5 0-10 2-14 6l-30 30-30-30c-4-4-9-6-14-6-5 0-10 2-14 6-7 7-7 19 0 27z" glyph-name="tag-delete" unicode=""/><glyph d="M419 225c0 6-3 12-7 15l-208 205c-4 4-9 6-14 6l-166 11c-7 0-13-2-17-7-5-4-8-10-7-17l11-163c0-6 2-11 6-15l208-204c5-4 10-6 16-6 6 0 11 2 16 6l155 153c4 4 7 10 7 16z m-178-121l-186 183-9 129 133-9 186-182z m-96 262c6-6 10-15 10-23 0-9-4-17-10-24-6-6-15-10-24-10-9 0-17 4-24 10-6 7-10 15-10 24 0 9 3 17 10 23 6 6 15 10 24 10 9 0 18-4 24-10z m367-141c0-5-2-10-6-14l-155-153c-4-3-9-5-14-5-5 0-10 2-14 5-7 8-7 20 0 28l142 138-195 191c-7 8-7 20 0 27 8 8 21 8 28 0l208-203c4-4 6-9 6-14z" glyph-name="tags" unicode=""/><glyph d="M179 512c70 0 178-23 205-42 6-4 9-11 9-18l0-218c0-6-3-13-8-17-2-1-41-32-81-54-51-28-86-67-94-92-11-30-25-71-71-71-22 0-39 12-49 33-19 44 1 104 35 151-23 5-50 12-67 17-30 10-51 32-55 59-4 28 10 57 40 78 22 58 59 151 86 166 10 6 28 8 50 8z m169-73c-42 17-172 36-197 26-12-11-45-86-68-149-2-4-5-8-8-11-19-12-28-27-27-39 2-10 11-18 24-23 28-9 97-24 98-24 8-1 14-7 17-15 3-8 1-16-5-21-50-54-59-110-50-132 3-6 5-6 7-6 11 0 16 7 28 41 13 39 60 85 115 115 26 15 53 34 66 44z m88 15l0-222c0-20 16-36 36-36 21 0 37 16 37 36l0 222c0 20-16 36-37 36-20 0-36-16-36-36z" glyph-name="thumbs-down" unicode=""/><glyph d="M333 0c-69 0-178 23-204 42-7 4-10 11-10 18l0 218c0 6 3 13 8 17 2 1 41 32 82 54 50 28 85 67 94 92 10 30 24 71 70 71 22 0 39-12 49-33 19-44-1-104-35-151 23-5 50-12 67-17 31-10 51-32 55-59 4-28-10-57-39-78-22-59-59-151-87-166-10-6-28-8-50-8z m-169 73c42-17 172-36 197-26 12 11 45 86 68 149 2 4 5 8 8 11 19 12 28 27 27 39-2 10-11 18-24 23-28 9-97 24-98 24-8 1-14 7-17 15-3 8-1 16 5 21 50 54 59 110 50 132-3 6-5 6-7 6-11 0-16-7-28-41-13-39-60-85-115-115-26-15-53-34-66-44z m-88-15l0 222c0 21-16 37-36 37-21 0-37-16-37-37l0-222c0-20 16-36 36-36 20 0 37 16 37 36z" glyph-name="thumbs-up" unicode=""/><glyph d="M151 277l126-126c5-5 12-7 19-7 6 0 13 2 18 7l47 47c5 5 7 11 7 18 0 7-2 14-7 19l-126 126c-5 5-11 7-19 7-6 0-13-2-18-7l-47-47c-10-10-10-27 0-37z m65 55l116-116-36-36-116 116z m289-129l-302 302c-9 9-23 9-32 0l-42-42c-6-6-8-16-5-24 6-15 2-32-9-43-11-11-28-14-43-9-8 4-17 1-24-5l-42-42c-4-4-6-10-6-16 0-6 2-11 7-15l302-302c4-5 10-7 15-7 7 0 12 2 16 7l42 42c6 6 9 16 5 24-6 15-2 32 9 43 11 11 28 14 43 9 8-4 18-1 24 5l42 42c9 9 9 23 0 31z m-64-33c-28 6-56-2-76-23-21-20-29-49-24-76l-17-18-270 271 17 18c28-6 56 2 76 23 21 20 29 49 24 76l17 18 271-271z" glyph-name="ticket" unicode=""/><glyph d="M512 256c0-120-97-217-216-217-44 0-86 13-122 38-10 7-13 20-6 31 7 10 21 13 31 6 29-20 63-31 97-31 95 0 171 78 171 173 0 95-76 173-171 173-92 0-168-74-171-167l51 52c9 9 23 9 32 0 9-8 9-22 0-31l-85-85c-4-5-10-7-16-7-6 0-11 2-15 7l-85 85c-9 9-9 23 0 32 9 9 22 9 31 0l43-43c7 112 101 201 215 201 119 0 216-97 216-217z m-217 126c-12 0-22-10-22-22l0-104c0-6 2-12 7-16l48-47c4-5 10-7 16-7 5 0 12 2 16 7 8 8 8 22-1 31l-42 41 0 95c0 12-10 22-22 22z" glyph-name="time-reverse" unicode=""/><glyph d="M139 413l0 71c0 16 12 28 28 28 16 0 28-12 28-28l0-71c0-16-12-28-28-28-16 0-28 12-28 28z m206-28c16 0 28 12 28 28l0 71c0 16-12 28-28 28-16 0-28-12-28-28l0-71c0-16 12-28 28-28z m-188-96l198 0c12 0 22 10 22 23 0 12-10 22-22 22l-198 0c-12 0-22-10-22-22 0-13 10-23 22-23z m310 184l-46 0c-12 0-22-10-22-22 0-12 10-22 22-22l24 0 0-379-378 0 0 379 24 0c12 0 22 10 22 22 0 12-10 22-22 22l-46 0c-13 0-23-12-23-24l0-421c0-12 10-22 23-22l422 0c13 0 23 10 23 22l0 421c0 12-10 24-23 24z m-229-44l36 0c13 0 23 10 23 22 0 12-10 22-23 22l-36 0c-13 0-23-10-23-22 0-12 10-22 23-22z m-81-240l198 0c12 0 22 10 22 22 0 13-10 23-22 23l-198 0c-12 0-22-10-22-23 0-12 10-22 22-22z" glyph-name="to-do" unicode=""/><glyph d="M467 240l0-218c0-12-10-22-22-22-12 0-22 10-22 22l0 218c0 13 10 23 22 23 12 0 22-10 22-23z m-22 209c12 0 22 10 22 22l0 19c0 12-10 22-22 22-12 0-22-10-22-22l0-19c0-12 10-22 22-22z m-312-193c0-37-30-67-66-67-36 0-67 30-67 67 0 37 30 67 66 67 36 0 67-30 67-67z m-45 0c0 12-10 22-21 22-12 0-22-10-22-22 0-12 10-22 21-22 12 0 22 10 22 22z m234-110c0-36-30-66-66-66-36 0-66 30-66 66 0 37 30 67 66 67 36 0 66-29 66-67z m-44 0c0 13-10 23-22 23-12 0-22-10-22-23 0-12 10-22 22-22 12 0 22 10 22 22z m234 207c0-37-30-67-66-67-36 0-66 30-66 67 0 37 30 67 66 67 36 0 66-30 66-67z m-45 0c0 12-10 22-21 22-12 0-22-10-22-22 0-12 10-22 22-22 11 0 21 9 21 22z m-211-296c-12 0-22-10-22-22l0-13c0-12 10-22 22-22 12 0 22 10 22 22l0 13c0 12-10 22-22 22z m0 184c12 0 22 10 22 22l0 227c0 12-10 22-22 22-12 0-22-10-22-22l0-227c0-12 10-22 22-22z m-189-81c-12 0-22-10-22-23l0-115c0-12 10-22 22-22 12 0 22 10 22 22l0 115c0 13-10 23-22 23z m0 191c12 0 22 10 22 22l0 117c0 12-10 22-22 22-12 0-22-10-22-22l0-117c0-12 10-22 22-22z" glyph-name="toggles" unicode=""/><glyph d="M436 343l-17-322c0-12-11-21-22-21l-282 0c-11 0-22 9-22 21l-17 322c-1 12 9 23 21 23 12 1 23-9 23-21l16-300 240 0 16 300c1 12 11 22 24 21 11 0 21-11 20-23z m59 74c0-12-10-22-22-22l-434 0c-12 0-22 10-22 22 0 13 10 23 22 23l122 0 0 50c0 10 8 16 18 16l154 0c10 0 18-6 18-16l0-50 122 0c12 0 22-10 22-23z m-295 23l112 0 0 27-112 0z m10-362c11 0 19 10 19 21l-5 240c0 11-9 20-20 20-11 0-20-9-19-20l5-241c0-11 9-20 20-20z m92 0c10 0 19 9 19 19l6 241c0 10-9 20-19 20-11 0-20-9-20-19l-6-240c0-12 9-21 20-21-1 0-1 0 0 0z" glyph-name="trash" unicode=""/><glyph d="M301 355l0 50c0 10 8 19 19 19 11 0 19-9 19-19l0-50c0-11-8-19-19-19-11 0-19 8-19 19z m18-76c6 0 12 3 15 7 4 5 7 10 7 16 0 6-2 11-7 15-3 5-10 7-15 7-6 0-12-2-16-7-4-4-6-10-6-15 0-6 2-12 6-16 4-4 10-7 16-7z m147 22c-16-18-37-28-61-32-13-75-66-113-127-120l0-82 48 0c12 0 22-10 22-22 0-13-10-23-22-23l-140 0c-12 0-22 10-22 23 0 12 10 22 22 22l48 0 0 82c-61 7-114 45-126 120-25 4-45 14-62 32-46 47-44 128-43 131 0 10 9 19 19 19l84 0 0 16c0 13 9 23 21 23l258 0c12 0 21-10 21-23l0-16 84 0c10 0 19-9 19-19 0-3 2-85-43-131z m-392 26c9-9 21-15 32-18l0 103-64 0c3-22 9-61 32-85z m288 118l-212 0 0-144c0-81 55-109 106-109 51 0 106 29 106 109z m76-118c22 22 29 57 32 85l-64 0 0-103c11 3 23 9 32 18z" glyph-name="trophy" unicode=""/><glyph d="M495 185l0-152c0-15-12-27-28-27l-422 0c-16 0-28 12-28 27l0 152c0 15 12 28 28 28 15 0 27-13 27-28l0-124 368 0 0 124c0 15 12 28 27 28 16 0 28-13 28-28z m-330 161l63 65 0-241c0-16 12-28 28-28 16 0 28 12 28 28l0 240 63-64c6-6 13-9 20-9 8 0 14 3 20 8 11 11 11 28 0 40l-111 113c-6 6-13 8-20 8-7 0-14-2-20-8l-111-113c-10-12-10-29 1-40 10-11 28-10 39 1z" glyph-name="upload" unicode=""/><glyph d="M256 194c82 0 150 68 150 150 0 84-68 151-150 151-82 0-150-67-150-150 0-83 68-151 150-151z m0 257c58 0 105-48 105-106 0-58-47-106-105-106-58 0-105 48-105 106 0 58 47 106 105 106z m70-271c-8 2-16 0-22-5l-48-41-48 41c-7 5-14 7-22 5-31-10-186-64-186-141 0-12 10-22 22-22l468 0c12 0 22 10 22 22 0 77-155 131-186 141z m-270-119c25 26 84 55 133 72l53-45c8-7 20-7 28 0l53 45c49-17 108-46 133-72z" glyph-name="user" unicode=""/><glyph d="M197 210c65 0 118 53 118 117 0 65-53 118-118 118-65 0-118-53-118-118 1-64 53-117 118-117z m0 191c41 0 73-33 73-73 0-40-32-73-73-73-41 0-73 33-73 73 0 40 33 73 73 73z m53-202c-6 2-12 1-18-2l-35-21-35 21c-6 3-12 4-18 2-34-11-144-50-144-110 0-12 10-22 22-22l350 0c12 0 22 10 22 22 0 60-110 99-144 110z m-188-88c19 15 51 30 85 43l38-23c8-5 16-5 23 0l38 23c34-12 66-28 85-43z m444 17c0-9-7-17-16-17l-75 0c-9 0-17 8-17 17 0 9 8 17 17 17l50 0c-9 11-22 20-39 29-8 4-11 14-6 22 4 8 14 11 22 7 24-13 64-40 64-75z m-93 147c0 24-20 44-44 44-6 0-12-1-17-3-9-4-19 0-22 8-3 9 1 19 9 22 9 4 19 6 30 6 43 0 77-34 77-77 0-43-35-77-77-77-22 0-43 9-58 26-6 6-5 17 2 23 6 6 17 6 23-2 8-9 21-15 34-15 23 1 43 21 43 45z" glyph-name="user-group" unicode=""/><glyph d="M347 203c43 0 78 35 78 78 0 43-35 78-78 78-43 0-78-35-78-78 0-43 35-78 78-78z m0 123c24 0 44-20 44-45 0-24-20-44-44-44-25 0-45 20-45 44 0 25 20 45 45 45z m-260-9c0 10 8 17 17 17l97 0c9 0 17-7 17-17 0-9-8-16-17-16l-97 0c-9 0-17 7-17 16z m114-78l-97 0c-9 0-17 8-17 17 0 9 8 17 17 17l97 0c9 0 17-8 17-17 0-9-8-17-17-17z m-25-44c0-10-7-17-16-17l-56 0c-9 0-17 7-17 17 0 9 8 16 17 16l56 0c9 0 16-7 16-16z m336 191c0 20-17 37-37 37l-438 0c-20 0-37-17-37-37l0-260c0-20 17-37 37-37l438 0c20 0 37 17 37 37z m-467-8l422 0 0-232c-23 24-65 39-81 45-3 1-7 1-11 0l-28-10-29 10c-3 1-7 0-11-1-18-6-70-23-91-56l-171 0z m220-244c13 11 30 16 48 23l28-10c3-1 8-1 11 0l29 9c17-6 34-12 47-23l-163 0z" glyph-name="user-id" unicode=""/><glyph d="M6 371c-9 10-8 26 2 34 90 75 182 49 260 14 82-38 148-34 203 11 10 9 26 7 35-4 9-10 7-26-3-34-39-32-83-49-132-49-38 0-80 10-124 31-77 35-142 48-206-7-11-8-27-7-35 4z m465-81c-54-45-121-48-203-11-78 35-169 62-259-14-11-8-12-24-3-34 9-11 25-12 35-3 65 54 129 42 207 6 44-20 85-30 124-30 48 0 92 16 131 48 11 9 12 25 3 35-8 10-24 12-35 3z m0-140c-54-45-121-48-203-11-78 36-169 62-259-13-11-9-12-25-3-35 9-10 25-11 35-3 65 54 129 42 207 7 44-20 85-31 124-31 48 0 92 16 131 48 11 9 12 25 3 35-8 10-24 12-35 3z" glyph-name="vibrate" unicode=""/><glyph d="M111 356c-10 0-20 5-28 12-7 7-11 17-11 27 0 10 5 20 11 28 8 7 18 11 28 11 10 0 20-4 28-11 7-7 11-17 11-28 0-10-4-20-11-27-8-7-18-12-28-12z m172 12c8 7 12 17 12 27 0 10-4 20-12 28-7 7-17 11-27 11-10 0-21-4-28-11-7-7-11-17-11-28 0-10 4-20 11-27 7-7 17-12 28-12 10 0 20 5 27 12z m145 0c7 7 12 17 12 27 0 10-5 20-12 28-7 7-17 11-27 11-10 0-21-4-28-11-7-7-11-17-11-28 0-10 4-20 11-27 7-7 17-12 28-12 10 0 20 5 27 12z m-289-139c7 7 11 17 11 27 0 10-4 20-11 28-8 7-18 11-28 11-10 0-20-4-28-11-7-7-11-17-11-28 0-10 5-20 11-27 8-8 18-12 28-12 10 0 20 4 28 12z m144 0c8 7 12 17 12 27 0 10-4 20-12 28-7 7-17 11-27 11-10 0-21-4-28-11-7-7-11-17-11-28 0-10 4-20 11-27 7-8 17-12 28-12 10 0 20 4 27 12z m145 0c7 7 12 17 12 27 0 10-5 20-12 28-7 7-17 11-27 11-10 0-21-4-28-11-7-7-11-17-11-28 0-10 4-20 11-27 7-8 17-12 28-12 10 0 20 4 27 12z m-289-139c7 7 11 17 11 27 0 10-4 20-11 28-8 7-18 11-28 11-10 0-20-5-28-11-7-8-11-18-11-28 0-10 5-20 11-27 8-8 18-12 28-12 10 0 20 4 28 12z m144 0c8 7 12 17 12 27 0 10-4 20-12 28-7 7-17 11-27 11-10 0-21-5-28-11-7-8-11-18-11-28 0-10 4-20 11-27 7-8 17-12 28-12 10 0 20 4 27 12z m145 0c7 7 12 17 12 27 0 10-5 20-12 28-7 7-17 11-27 11-10 0-21-5-28-11-7-8-11-18-11-28 0-10 4-20 11-27 7-8 17-12 28-12 10 0 20 4 27 12z" glyph-name="view-apps" unicode=""/><glyph d="M142 434c0 16 13 28 28 28l309 0c15 0 27-12 27-28 0-15-12-28-27-28l-309 0c-15 0-28 13-28 28z m337-150l-309 0c-15 0-28-12-28-28 0-16 13-28 28-28l309 0c15 0 27 12 27 28 0 16-12 28-27 28z m0-178l-309 0c-15 0-28-13-28-28 0-16 13-28 28-28l309 0c15 0 27 12 27 28 0 15-12 28-27 28z m-429 187c-22 0-39-18-39-40 0-21 17-39 39-39 22 0 39 18 39 39 0 22-18 40-39 40z m0 180c-22 0-39-18-39-39 0-22 17-40 39-40 22 0 39 18 39 40 0 21-18 39-39 39z m0-355c-22 0-39-18-39-40 0-21 17-39 39-39 22 0 39 18 39 39 0 22-18 40-39 40z" glyph-name="view-list" unicode=""/><glyph d="M482 282l-249 0c-17 0-30 14-30 30l0 75c0 17 13 30 30 30l248 0c17 0 30-13 30-30l0-75c1-16-12-30-29-30z m-235 45l220 0 0 46-220 0z m235-232l-249 0c-17 0-30 13-30 30l0 75c0 16 13 30 30 30l248 0c17 0 30-14 30-30l0-75c1-17-12-30-29-30z m-235 44l220 0 0 46-220 0z m-115 143l-101 0c-17 0-31 14-31 31l0 73c0 17 14 31 31 31l101 0c17 0 31-14 31-31l0-73c0-17-14-31-31-31z m-87 45l74 0 0 46-74 0z m87-232l-101 0c-17 0-31 14-31 31l0 73c0 17 14 31 31 31l101 0c17 0 31-14 31-31l0-73c0-17-14-31-31-31z m-87 44l74 0 0 46-74 0z" glyph-name="view-list-large" unicode=""/><glyph d="M194 285l-152 0c-17 0-31 14-31 32l0 119c0 18 14 31 31 31l152 0c17 0 31-13 31-31l0-119c0-18-14-32-31-32z m-138 45l125 0 0 93-125 0z m414-45l-152 0c-17 0-31 14-31 32l0 119c0 18 14 31 31 31l152 0c17 0 31-13 31-31l0-119c0-18-14-32-31-32z m-139 45l125 0 0 93-125 0z m-137-285l-152 0c-17 0-31 13-31 31l0 119c0 18 14 32 31 32l152 0c17 0 31-14 31-32l0-119c0-18-14-31-31-31z m-138 44l125 0 0 93-125 0z m414-44l-152 0c-17 0-31 13-31 31l0 119c0 18 14 32 31 32l152 0c17 0 31-14 31-32l0-119c0-18-14-31-31-31z m-139 44l125 0 0 93-125 0z" glyph-name="view-thumb" unicode=""/><glyph d="M210 488c-9 3-17 2-24-5l-110-110-54 0c-12 0-22-10-22-22l0-190c0-12 10-22 22-22l55 0 109-110c5-5 10-7 16-7 3 0 5 1 8 2 8 3 13 12 13 21l0 422c0 9-5 18-13 21z m-32-389l-77 78c-5 4-9 7-15 7l-41 0 0 144 41 0c6 0 10 3 15 7l77 78z m118 63c-4-5-11-7-17-7-5 0-10 1-15 5-9 9-10 23-1 31 55 63 5 123 0 130-9 9-8 23 1 31 9 8 24 7 32-2 29-32 67-113 0-188z m67-60c-4-5-10-7-16-7-5 0-11 2-15 6-9 8-10 22-2 31 110 123 4 243 0 248-8 10-7 23 2 32 9 8 23 7 31-2 2-2 136-156 0-308z m71-45c-5-5-11-7-17-7-5 0-11 2-15 6-9 8-10 22-2 31 62 70 82 148 57 231-19 63-56 106-57 106-8 9-7 23 2 31 9 9 23 7 32-1 1-2 175-200 0-397z" glyph-name="volume-full" unicode=""/><glyph d="M299 488c-8 3-17 2-24-5l-109-110-55 0c-12 0-22-10-22-22l0-190c0-12 10-22 22-22l55 0 110-110c4-5 10-7 16-7 2 0 4 1 7 2 8 3 13 12 13 21l0 422c0 9-5 18-13 21z m-32-389l-77 78c-5 4-9 7-15 7l-41 0 0 144 41 0c6 0 10 3 14 7l78 78z m119 63c-5-5-11-7-17-7-6 0-11 1-15 5-9 9-10 23-2 31 58 64 3 127 0 130-8 8-7 23 2 31 9 8 23 7 31-2 30-32 67-113 1-188z" glyph-name="volume-low" unicode=""/><glyph d="M254 488c-9 3-18 2-24-5l-109-110-54 0c-12 0-22-10-22-22l0-190c0-12 10-22 22-22l54 0 109-110c5-5 10-7 16-7 3 0 5 1 8 2 8 3 13 12 13 21l0 422c0 9-5 18-13 21z m-31-389l-78 78c-4 4-9 7-15 7l-41 0 0 144 41 0c6 0 11 3 15 7l78 78z m117 63c-4-5-11-7-17-7-5 0-10 1-15 5-9 9-10 23-1 31 55 63 5 123 0 130-9 9-8 23 2 31 9 8 23 7 31-2 29-32 66-113 0-188z m67-60c-5-5-11-7-17-7-5 0-10 2-15 6-9 8-10 22-2 31 110 122 5 243 0 248-8 10-7 23 2 31 10 9 23 8 31-1 2-2 137-156 1-308z" glyph-name="volume-medium" unicode=""/><glyph d="M224 488c-8 3-18 1-25-5l-107-110-53 0c-12 0-22-10-22-22l0-190c0-12 10-22 22-22l53 0 107-110c4-5 10-7 16-7 3 0 6 1 9 2 9 3 15 12 15 21l0 422c0 9-6 18-15 21z m-29-389l-77 78c-4 4-11 7-17 7l-40 0 0 144 40 0c6 0 13 3 18 7l76 78z m294 90c9-9 9-23 0-32-5-3-10-6-16-6-6 0-12 3-16 7l-64 66-64-66c-5-4-10-7-16-7-6 0-11 3-16 6-9 9-9 23 0 32l65 67-65 67c-8 9-8 23 1 32 9 8 23 8 31-1l64-66 64 66c9 9 23 9 32 1 9-9 9-23 1-32l-66-67z" glyph-name="volume-off" unicode=""/><glyph d="M402 238c8-8 11-18 11-28 0-10-3-20-11-27-7-8-17-12-27-12-10 0-20 4-28 12-8 7-11 17-11 27 0 10 4 20 11 28 7 7 17 11 28 11 10 0 20-4 27-11z m104 86l0-246c0-25-20-45-45-45l-403 0c-29 0-52 24-52 53l0 326c0 37 30 67 66 67l308 0c31 0 54-25 54-56l0-33 10 0c35 0 62-31 62-66z m-459 88c0-12 10-22 22-22l321 0 0 34c0 6-5 10-10 10l-311 0c-12 0-22-10-22-22z m415-88c0 10-8 21-18 21l-385 0c-5 0-9-7-9-12l0-247c0-4 4-8 8-8l403 0c1 0 1 0 1 0z" glyph-name="wallet" unicode=""/><glyph d="M490 28l-468 0c-8 0-15 4-19 11-4 7-4 15 0 22l234 412c3 7 11 11 19 11 8 0 16-4 19-11l234-412c4-6 4-15 0-22-4-7-11-11-19-11z m-429 44l391 0-196 345z m217 133l0 104c0 12-10 22-22 22-12 0-22-10-22-22l0-104c0-12 10-22 22-22 12 0 22 10 22 22z m-3-92c5 5 9 12 9 19 0 8-3 15-9 20-5 5-12 8-19 8-7 0-14-3-19-8-5-5-9-12-9-20 0-7 3-14 9-19 5-5 12-8 19-8 7 0 14 3 19 8z" glyph-name="warning" unicode=""/><glyph d="M256 512c-141 0-256-115-256-256 0-141 115-256 256-256 141 0 256 115 256 256 0 141-115 256-256 256z m21-466c-2 0-3 0-4-1l0 121c29 0 55 1 79 3-21-65-61-109-75-123z m-42 0c-15 15-54 58-75 123 24-2 50-3 79-3l0-121c-1 0-2 1-4 1z m-190 210c0 14 1 28 3 41 13 2 36 6 69 9-3-16-5-33-5-51 0-17 2-34 4-50-32 4-56 7-68 9-2 14-3 28-3 42z m101 0c0 19 3 37 6 53 26 2 54 4 87 4l0-114c-32 1-61 2-88 4-2 16-5 34-5 53z m130 210c15-15 53-59 75-123-23 2-49 3-78 3l0 121c1 0 2-1 3-1z m-37 1l0-121c-29 0-55-1-78-3 21 64 60 108 74 123 2 0 3 1 4 1z m34-268l0 114c32-1 61-2 87-4 3-16 6-34 6-53 0-19-2-37-5-53-26-2-55-3-88-4z m122 107c32-3 56-7 68-9 3-13 4-27 4-41 0-14-1-28-3-41-13-2-36-6-69-9 3 16 4 33 4 51 0 16-2 34-4 49z m58 27c-16 2-38 5-66 8-14 47-37 86-56 113 56-21 100-66 122-121z m-272 121c-20-27-42-65-56-113-28-2-50-5-66-8 22 55 67 100 122 121z m-122-275c16-2 38-5 66-8 13-47 35-86 55-113-55 22-99 66-121 121z m273-121c20 27 42 65 55 113 28 2 50 5 66 8-22-55-66-99-121-121z" glyph-name="web" unicode=""/><glyph d="M452 339c-2 22-21 39-44 39l-41 0 0 10c0 66-48 118-110 118l-2 0c-62 0-110-52-110-118l0-10-41 0c-23 0-41-17-44-39l-32-308c-1-7 1-13 5-18 5-5 11-7 17-7l412 0c6 0 12 2 17 7 4 4 6 11 5 17z m-263 49c0 41 29 74 66 74l2 0c37 0 66-33 66-74l0-10-134 0z m-114-338l29 284 303 0 29-284z" glyph-name="weight" unicode=""/><glyph d="M424 286c11-11 12-28 1-39-5-6-13-9-20-9-7 0-14 2-19 7-124 113-257 6-262 2-12-10-30-9-39 3-10 12-9 29 3 39 61 50 208 114 336-3z m-166-155c-14 0-28-5-38-15-10-10-15-24-15-38 0-13 5-27 15-37 10-10 24-15 38-15 14 0 27 5 37 15 10 10 16 24 16 37 0 14-6 28-16 38-10 10-23 15-37 15z m245 231c-132 115-260 109-344 83-89-27-148-80-150-83-11-11-12-28-1-39 10-11 28-12 39-1 1 0 52 47 129 70 102 32 200 7 290-72 5-4 12-7 19-7 8 0 15 4 21 10 9 11 8 29-3 39z m-339-152c-12-10-14-27-4-39 9-12 27-14 39-5 2 2 61 48 111 1 6-5 12-7 19-7 7 0 15 3 20 9 11 11 11 29-1 39-68 62-150 28-184 2z" glyph-name="wifi" unicode=""/><glyph d="M437 437c-100 99-262 99-362 0-100-100-100-262 0-362 50-51 115-76 180-76 66 0 132 25 181 76 101 100 101 262 1 362z m-331-331c-77 78-82 200-15 283l298-298c-83-67-205-62-283 15z m315 17l-298 298c38 31 86 46 133 46 54 0 109-20 150-61 77-78 82-200 15-283z" glyph-name="wrong" unicode=""/><glyph d="M505 43l-194 191c23 29 37 66 37 105 0 96-78 173-174 173-97 0-174-77-174-173 0-95 78-172 174-172 38 0 73 12 101 32l195-192c5-5 11-7 17-7 7 0 13 2 18 7 9 10 9 26 0 36z m-460 296c0 71 57 128 129 128 72 0 130-57 130-128 0-70-59-128-130-128-71 0-129 58-129 128z m216-2c0-11-9-20-19-20l-47 0 0-44c0-11-9-20-20-20-10 0-19 9-19 20l0 44-50 0c-10 0-19 9-19 20 0 10 9 19 19 19l50 0 0 51c0 10 9 19 19 19 11 0 20-9 20-19l0-51 47 0c11 0 19-9 19-19z" glyph-name="zoom-in" unicode=""/><glyph d="M505 43l-194 191c23 29 37 66 37 105 0 96-78 173-174 173-97 0-174-77-174-173 0-95 78-172 174-172 38 0 73 12 101 32l195-192c5-5 11-7 17-7 7 0 13 2 18 7 9 10 9 26 0 36z m-460 296c0 71 57 128 129 128 72 0 130-57 130-128 0-70-59-128-130-128-71 0-129 58-129 128z m216-2c0-11-9-20-19-20l-136 0c-10 0-19 9-19 20 0 10 9 19 19 19l136 0c11 0 19-9 19-19z" glyph-name="zoom-out" unicode=""/></font>
</defs>
</svg>
